  0
SECTION
  2
HEADER
  9
$ACADVER
  1
AC1018
  9
$ACADMAINTVER
 70
     0
  9
$DWGCODEPAGE
  3
ANSI_950
  9
$INSBASE
 10
0.0
 20
0.0
 30
0.0
  9
$EXTMIN
 10
146.9999999999999
 20
91.7603550295858
 30
0.0
  9
$EXTMAX
 10
422.4999999999996
 20
396.6444773175543
 30
0.0
  9
$LIMMIN
 10
0.0
 20
0.0
  9
$LIMMAX
 10
420.0
 20
297.0
  9
$ORTHOMODE
 70
     0
  9
$REGENMODE
 70
     1
  9
$FILLMODE
 70
     1
  9
$QTEXTMODE
 70
     0
  9
$MIRRTEXT
 70
     1
  9
$LTSCALE
 40
0.2
  9
$ATTMODE
 70
     1
  9
$TEXTSIZE
 40
10.0
  9
$TRACEWID
 40
1.0
  9
$TEXTSTYLE
  7
Standard
  9
$CLAYER
  8
PROFILE
  9
$CELTYPE
  6
ByLayer
  9
$CECOLOR
 62
     6
  9
$CELTSCALE
 40
1.0
  9
$DISPSILH
 70
     0
  9
$DIMSCALE
 40
0.6666666666666666
  9
$DIMASZ
 40
1.5
  9
$DIMEXO
 40
1.0
  9
$DIMDLI
 40
0.0
  9
$DIMRND
 40
0.0
  9
$DIMDLE
 40
1.0
  9
$DIMEXE
 40
1.0
  9
$DIMTP
 40
0.0
  9
$DIMTM
 40
0.0
  9
$DIMTXT
 40
2.5
  9
$DIMCEN
 40
1.0
  9
$DIMTSZ
 40
0.0
  9
$DIMTOL
 70
     0
  9
$DIMLIM
 70
     0
  9
$DIMTIH
 70
     0
  9
$DIMTOH
 70
     0
  9
$DIMSE1
 70
     0
  9
$DIMSE2
 70
     0
  9
$DIMTAD
 70
     1
  9
$DIMZIN
 70
     8
  9
$DIMBLK
  1
ArchTick
  9
$DIMASO
 70
     1
  9
$DIMSHO
 70
     1
  9
$DIMPOST
  1
%%c<>
  9
$DIMAPOST
  1

  9
$DIMALT
 70
     0
  9
$DIMALTD
 70
     2
  9
$DIMALTF
 40
25.4
  9
$DIMLFAC
 40
1.0
  9
$DIMTOFL
 70
     1
  9
$DIMTVP
 40
0.0
  9
$DIMTIX
 70
     0
  9
$DIMSOXD
 70
     0
  9
$DIMSAH
 70
     0
  9
$DIMBLK1
  1

  9
$DIMBLK2
  1

  9
$DIMSTYLE
  2
R
  9
$DIMCLRD
 70
     0
  9
$DIMCLRE
 70
     0
  9
$DIMCLRT
 70
     7
  9
$DIMTFAC
 40
0.8
  9
$DIMGAP
 40
1.0
  9
$DIMJUST
 70
     0
  9
$DIMSD1
 70
     0
  9
$DIMSD2
 70
     0
  9
$DIMTOLJ
 70
     1
  9
$DIMTZIN
 70
     8
  9
$DIMALTZ
 70
     0
  9
$DIMALTTZ
 70
     0
  9
$DIMUPT
 70
     0
  9
$DIMDEC
 70
     4
  9
$DIMTDEC
 70
     4
  9
$DIMALTU
 70
     2
  9
$DIMALTTD
 70
     2
  9
$DIMTXSTY
  7
Standard
  9
$DIMAUNIT
 70
     0
  9
$DIMADEC
 70
     0
  9
$DIMALTRND
 40
0.0
  9
$DIMAZIN
 70
     0
  9
$DIMDSEP
 70
    46
  9
$DIMATFIT
 70
     3
  9
$DIMFRAC
 70
     0
  9
$DIMLDRBLK
  1

  9
$DIMLUNIT
 70
     2
  9
$DIMLWD
 70
    -2
  9
$DIMLWE
 70
    -2
  9
$DIMTMOVE
 70
     0
  9
$LUNITS
 70
     2
  9
$LUPREC
 70
     4
  9
$SKETCHINC
 40
1.0
  9
$FILLETRAD
 40
0.0
  9
$AUNITS
 70
     0
  9
$AUPREC
 70
     0
  9
$MENU
  1
.
  9
$ELEVATION
 40
0.0
  9
$PELEVATION
 40
0.0
  9
$THICKNESS
 40
0.0
  9
$LIMCHECK
 70
     0
  9
$CHAMFERA
 40
0.4
  9
$CHAMFERB
 40
0.4
  9
$CHAMFERC
 40
20.0
  9
$CHAMFERD
 40
0.0
  9
$SKPOLY
 70
     0
  9
$TDCREATE
 40
2452850.673425185
  9
$TDUCREATE
 40
2452850.340091852
  9
$TDUPDATE
 40
2455295.679523473
  9
$TDUUPDATE
 40
2455295.346190139
  9
$TDINDWG
 40
5.5022576736
  9
$TDUSRTIMER
 40
5.5022575000
  9
$USRTIMER
 70
     1
  9
$ANGBASE
 50
0.0
  9
$ANGDIR
 70
     0
  9
$PDMODE
 70
     0
  9
$PDSIZE
 40
0.0
  9
$PLINEWID
 40
0.0
  9
$SPLFRAME
 70
     0
  9
$SPLINETYPE
 70
     6
  9
$SPLINESEGS
 70
     8
  9
$HANDSEED
  5
34A
  9
$SURFTAB1
 70
     6
  9
$SURFTAB2
 70
     6
  9
$SURFTYPE
 70
     6
  9
$SURFU
 70
     6
  9
$SURFV
 70
     6
  9
$UCSBASE
  2

  9
$UCSNAME
  2

  9
$UCSORG
 10
0.0
 20
0.0
 30
0.0
  9
$UCSXDIR
 10
1.0
 20
0.0
 30
0.0
  9
$UCSYDIR
 10
0.0
 20
1.0
 30
0.0
  9
$UCSORTHOREF
  2

  9
$UCSORTHOVIEW
 70
     0
  9
$UCSORGTOP
 10
0.0
 20
0.0
 30
0.0
  9
$UCSORGBOTTOM
 10
0.0
 20
0.0
 30
0.0
  9
$UCSORGLEFT
 10
0.0
 20
0.0
 30
0.0
  9
$UCSORGRIGHT
 10
0.0
 20
0.0
 30
0.0
  9
$UCSORGFRONT
 10
0.0
 20
0.0
 30
0.0
  9
$UCSORGBACK
 10
0.0
 20
0.0
 30
0.0
  9
$PUCSBASE
  2

  9
$PUCSNAME
  2

  9
$PUCSORG
 10
0.0
 20
0.0
 30
0.0
  9
$PUCSXDIR
 10
1.0
 20
0.0
 30
0.0
  9
$PUCSYDIR
 10
0.0
 20
1.0
 30
0.0
  9
$PUCSORTHOREF
  2

  9
$PUCSORTHOVIEW
 70
     0
  9
$PUCSORGTOP
 10
0.0
 20
0.0
 30
0.0
  9
$PUCSORGBOTTOM
 10
0.0
 20
0.0
 30
0.0
  9
$PUCSORGLEFT
 10
0.0
 20
0.0
 30
0.0
  9
$PUCSORGRIGHT
 10
0.0
 20
0.0
 30
0.0
  9
$PUCSORGFRONT
 10
0.0
 20
0.0
 30
0.0
  9
$PUCSORGBACK
 10
0.0
 20
0.0
 30
0.0
  9
$USERI1
 70
     0
  9
$USERI2
 70
     0
  9
$USERI3
 70
     0
  9
$USERI4
 70
     0
  9
$USERI5
 70
     0
  9
$USERR1
 40
0.0
  9
$USERR2
 40
0.0
  9
$USERR3
 40
0.0
  9
$USERR4
 40
0.0
  9
$USERR5
 40
0.0
  9
$WORLDVIEW
 70
     1
  9
$SHADEDGE
 70
     3
  9
$SHADEDIF
 70
    70
  9
$TILEMODE
 70
     1
  9
$MAXACTVP
 70
    64
  9
$PINSBASE
 10
0.0
 20
0.0
 30
0.0
  9
$PLIMCHECK
 70
     0
  9
$PEXTMIN
 10
0.0
 20
0.0
 30
0.0
  9
$PEXTMAX
 10
284.0
 20
198.0
 30
0.0
  9
$PLIMMIN
 10
-6.452148220391262
 20
-5.985769918010943
  9
$PLIMMAX
 10
290.4738466526556
 20
203.9875577187078
  9
$UNITMODE
 70
     0
  9
$VISRETAIN
 70
     1
  9
$PLINEGEN
 70
     0
  9
$PSLTSCALE
 70
     1
  9
$TREEDEPTH
 70
  3020
  9
$CMLSTYLE
  2
Standard
  9
$CMLJUST
 70
     0
  9
$CMLSCALE
 40
20.0
  9
$PROXYGRAPHICS
 70
     1
  9
$MEASUREMENT
 70
     1
  9
$CELWEIGHT
370
    -1
  9
$ENDCAPS
280
     0
  9
$JOINSTYLE
280
     0
  9
$LWDISPLAY
290
     0
  9
$INSUNITS
 70
     4
  9
$HYPERLINKBASE
  1

  9
$STYLESHEET
  1

  9
$XEDIT
290
     1
  9
$CEPSNTYPE
380
     0
  9
$PSTYLEMODE
290
     1
  9
$FINGERPRINTGUID
  2
{FDEAD578-A652-11D2-9A35-0060089B3A3F}
  9
$VERSIONGUID
  2
{DFD94010-7D20-4FAA-A32C-1BA51ABA89BF}
  9
$EXTNAMES
290
     1
  9
$PSVPSCALE
 40
0.0
  9
$OLESTARTUP
290
     0
  9
$SORTENTS
280
   127
  9
$INDEXCTL
280
     0
  9
$HIDETEXT
280
     1
  9
$XCLIPFRAME
290
     0
  9
$HALOGAP
280
     0
  9
$OBSCOLOR
 70
   257
  9
$OBSLTYPE
280
     0
  9
$INTERSECTIONDISPLAY
280
     0
  9
$INTERSECTIONCOLOR
 70
   257
  9
$DIMASSOC
280
     1
  9
$PROJECTNAME
  1

  0
ENDSEC
  0
SECTION
  2
CLASSES
  0
CLASS
  1
ACDBDICTIONARYWDFLT
  2
AcDbDictionaryWithDefault
  3
ObjectDBX Classes
 90
        0
 91
        1
280
     0
281
     0
  0
CLASS
  1
DICTIONARYVAR
  2
AcDbDictionaryVar
  3
ObjectDBX Classes
 90
        0
 91
        0
280
     0
281
     0
  0
ENDSEC
  0
SECTION
  2
TABLES
  0
TABLE
  2
VPORT
  5
1A
330
0
100
AcDbSymbolTable
 70
     4
  0
VPORT
  5
349
330
1A
100
AcDbSymbolTableRecord
100
AcDbViewportTableRecord
  2
*Active
 70
     0
 10
0.0
 20
0.0
 11
1.0
 21
1.0
 12
264.4898997229641
 22
242.377487983412
 13
0.0
 23
0.0
 14
0.5
 24
0.5
 15
10.0
 25
10.0
 16
0.0
 26
0.0
 36
1.0
 17
0.0
 27
0.0
 37
0.0
 40
304.7147082245
 41
1.809523809523809
 42
50.0
 43
0.0
 44
0.0
 50
0.0
 51
0.0
 71
     0
 72
   100
 73
     1
 74
     3
 75
     1
 76
     0
 77
     0
 78
     0
281
     0
 65
     1
110
0.0
120
0.0
130
0.0
111
1.0
121
0.0
131
0.0
112
0.0
122
1.0
132
0.0
 79
     0
146
0.0
  0
ENDTAB
  0
TABLE
  2
LTYPE
  5
15
330
0
100
AcDbSymbolTable
 70
     3
  0
LTYPE
  5
16
330
15
100
AcDbSymbolTableRecord
100
AcDbLinetypeTableRecord
  2
ByBlock
 70
     0
  3

 72
    65
 73
     0
 40
0.0
  0
LTYPE
  5
17
330
15
100
AcDbSymbolTableRecord
100
AcDbLinetypeTableRecord
  2
ByLayer
 70
     0
  3

 72
    65
 73
     0
 40
0.0
  0
LTYPE
  5
8
330
15
100
AcDbSymbolTableRecord
100
AcDbLinetypeTableRecord
  2
Continuous
 70
     0
  3
Solid line
 72
    65
 73
     0
 40
0.0
  0
LTYPE
  5
37
330
15
100
AcDbSymbolTableRecord
100
AcDbLinetypeTableRecord
  2
CENTER
 70
     0
  3
Center ____ _ ____ _ ____ _ ____ _ ____ _ ____
 72
    65
 73
     4
 40
50.8
 49
31.75
 74
     0
 49
-6.349999999999998
 74
     0
 49
6.349999999999998
 74
     0
 49
-6.349999999999998
 74
     0
  0
LTYPE
  5
47
330
15
100
AcDbSymbolTableRecord
100
AcDbLinetypeTableRecord
  2
DASHED
 70
     0
  3
Dashed __ __ __ __ __ __ __ __ __ __ __ __ __ _
 72
    65
 73
     2
 40
19.05
 49
12.7
 74
     0
 49
-6.349999999999998
 74
     0
  0
ENDTAB
  0
TABLE
  2
LAYER
  5
10
330
0
100
AcDbSymbolTable
 70
     3
  0
LAYER
  5
4
330
10
100
AcDbSymbolTableRecord
100
AcDbLayerTableRecord
  2
0
 70
     0
 62
     7
  6
Continuous
370
    -3
390
5
  0
LAYER
  5
35
330
10
100
AcDbSymbolTableRecord
100
AcDbLayerTableRecord
  2
PROFILE
 70
     0
 62
     9
  6
Continuous
370
    -3
390
5
  0
LAYER
  5
134
330
10
100
AcDbSymbolTableRecord
100
AcDbLayerTableRecord
  2
Defpoints
 70
     0
 62
     7
  6
Continuous
290
     0
370
    -3
390
5
  0
ENDTAB
  0
TABLE
  2
STYLE
  5
11
330
0
100
AcDbSymbolTable
 70
     1
  0
STYLE
  5
12
330
11
100
AcDbSymbolTableRecord
100
AcDbTextStyleTableRecord
  2
Standard
 70
     0
 40
0.0
 41
1.0
 50
0.0
 71
     0
 42
10.0
  3
romantic.ttf
  4

1001
ACAD
1000
Romantic
1071
      514
  0
ENDTAB
  0
TABLE
  2
VIEW
  5
18
330
0
100
AcDbSymbolTable
 70
     0
  0
ENDTAB
  0
TABLE
  2
UCS
  5
19
330
0
100
AcDbSymbolTable
 70
     0
  0
ENDTAB
  0
TABLE
  2
APPID
  5
1C
330
0
100
AcDbSymbolTable
 70
     1
  0
APPID
  5
13
330
1C
100
AcDbSymbolTableRecord
100
AcDbRegAppTableRecord
  2
ACAD
 70
     0
  0
ENDTAB
  0
TABLE
  2
DIMSTYLE
  5
1D
330
0
100
AcDbSymbolTable
 70
     3
100
AcDbDimStyleTable
 71
     3
340
28
340
27
340
1E
  0
DIMSTYLE
105
1E
102
{ACAD_REACTORS
330
133
330
141
330
14E
330
15B
330
168
330
175
330
182
330
1B4
330
1B9
330
1B8
330
1B3
330
1B7
330
1B6
330
275
330
282
330
28F
330
29E
330
29D
330
29C
330
332
102
}
330
1D
100
AcDbSymbolTableRecord
100
AcDbDimStyleTableRecord
  2
STANDARD
 70
     0
 40
0.666666666666667
 41
1.5
 42
1.0
 43
0.0
 44
1.0
 46
1.0
 73
     0
 74
     0
 77
     1
 78
     8
140
2.5
141
1.0
143
0.03937007874016
147
1.0
171
     3
172
     1
178
     7
179
     3
271
     3
272
     3
274
     3
283
     0
284
     8
289
     1
340
12
341
1F
342
23
  0
DIMSTYLE
105
28
102
{ACAD_REACTORS
330
198
330
1A5
330
1B5
330
1B2
330
2F2
330
300
102
}
330
1D
100
AcDbSymbolTableRecord
100
AcDbDimStyleTableRecord
  2
R
 70
     0
  3
%%c<>
 40
0.6666666666666666
 41
1.5
 42
1.0
 43
0.0
 44
1.0
 46
1.0
 73
     0
 74
     0
 77
     1
 78
     8
140
2.5
141
1.0
146
0.8
147
1.0
172
     1
178
     7
284
     8
340
12
342
23
  0
DIMSTYLE
105
27
102
{ACAD_REACTORS
330
2DE
330
301
102
}
330
1D
100
AcDbSymbolTableRecord
100
AcDbDimStyleTableRecord
  2
ARR
 70
     0
 40
0.6666666666666666
 41
2.5
 42
1.0
 43
0.0
 44
1.0
 46
1.0
 73
     0
 77
     1
 78
     8
 79
     2
140
2.5
141
1.0
146
0.8
147
1.0
178
     7
179
     3
271
     3
272
     3
284
     8
285
     8
286
     8
289
     1
340
12
  0
ENDTAB
  0
TABLE
  2
BLOCK_RECORD
  5
1
330
0
100
AcDbSymbolTable
 70
    31
  0
BLOCK_RECORD
  5
2
330
1
100
AcDbSymbolTableRecord
100
AcDbBlockTableRecord
  2
*Model_Space
340
A
  0
BLOCK_RECORD
  5
C
330
1
100
AcDbSymbolTableRecord
100
AcDbBlockTableRecord
  2
*Paper_Space
340
F
  0
BLOCK_RECORD
  5
23
330
1
100
AcDbSymbolTableRecord
100
AcDbBlockTableRecord
  2
_ArchTick
340
0
102
{BLKREFS
331
139
331
13A
331
146
331
147
331
153
331
154
331
160
331
161
331
16D
331
16E
331
17A
331
17B
331
192
331
193
331
19D
331
19E
331
1AA
331
1AB
331
21D
331
21E
331
22F
331
230
331
238
331
239
331
241
331
242
331
24A
331
24B
331
253
331
254
331
25C
331
25D
331
265
331
266
331
27A
331
27B
331
287
331
288
331
294
331
295
331
2C6
331
2C7
331
2CF
331
2D0
331
2D8
331
2D9
331
2F8
331
2F9
331
326
331
327
331
342
331
343
102
}
  0
BLOCK_RECORD
  5
1F
330
1
100
AcDbSymbolTableRecord
100
AcDbBlockTableRecord
  2
_DatumFilled
340
0
  0
BLOCK_RECORD
  5
2F
330
1
100
AcDbSymbolTableRecord
100
AcDbBlockTableRecord
  2
_OBLIQUE
340
0
  0
BLOCK_RECORD
  5
135
330
1
100
AcDbSymbolTableRecord
100
AcDbBlockTableRecord
  2
*D3
340
0
  0
BLOCK_RECORD
  5
142
330
1
100
AcDbSymbolTableRecord
100
AcDbBlockTableRecord
  2
*D4
340
0
  0
BLOCK_RECORD
  5
14F
330
1
100
AcDbSymbolTableRecord
100
AcDbBlockTableRecord
  2
*D5
340
0
  0
BLOCK_RECORD
  5
15C
330
1
100
AcDbSymbolTableRecord
100
AcDbBlockTableRecord
  2
*D6
340
0
  0
BLOCK_RECORD
  5
169
330
1
100
AcDbSymbolTableRecord
100
AcDbBlockTableRecord
  2
*D7
340
0
  0
BLOCK_RECORD
  5
176
330
1
100
AcDbSymbolTableRecord
100
AcDbBlockTableRecord
  2
*D8
340
0
  0
BLOCK_RECORD
  5
183
330
1
100
AcDbSymbolTableRecord
100
AcDbBlockTableRecord
  2
*D9
340
0
  0
BLOCK_RECORD
  5
199
330
1
100
AcDbSymbolTableRecord
100
AcDbBlockTableRecord
  2
*D10
340
0
  0
BLOCK_RECORD
  5
1A6
330
1
100
AcDbSymbolTableRecord
100
AcDbBlockTableRecord
  2
*D11
340
0
  0
BLOCK_RECORD
  5
1BA
330
1
100
AcDbSymbolTableRecord
100
AcDbBlockTableRecord
  2
*D12
340
0
  0
BLOCK_RECORD
  5
1C6
330
1
100
AcDbSymbolTableRecord
100
AcDbBlockTableRecord
  2
*D13
340
0
  0
BLOCK_RECORD
  5
1D2
330
1
100
AcDbSymbolTableRecord
100
AcDbBlockTableRecord
  2
*D14
340
0
  0
BLOCK_RECORD
  5
1DE
330
1
100
AcDbSymbolTableRecord
100
AcDbBlockTableRecord
  2
*D15
340
0
  0
BLOCK_RECORD
  5
1EA
330
1
100
AcDbSymbolTableRecord
100
AcDbBlockTableRecord
  2
*D16
340
0
  0
BLOCK_RECORD
  5
1F6
330
1
100
AcDbSymbolTableRecord
100
AcDbBlockTableRecord
  2
*D17
340
0
  0
BLOCK_RECORD
  5
202
330
1
100
AcDbSymbolTableRecord
100
AcDbBlockTableRecord
  2
*D18
340
0
  0
BLOCK_RECORD
  5
20E
330
1
100
AcDbSymbolTableRecord
100
AcDbBlockTableRecord
  2
*D19
340
0
  0
BLOCK_RECORD
  5
276
330
1
100
AcDbSymbolTableRecord
100
AcDbBlockTableRecord
  2
*D20
340
0
  0
BLOCK_RECORD
  5
283
330
1
100
AcDbSymbolTableRecord
100
AcDbBlockTableRecord
  2
*D21
340
0
  0
BLOCK_RECORD
  5
290
330
1
100
AcDbSymbolTableRecord
100
AcDbBlockTableRecord
  2
*D22
340
0
  0
BLOCK_RECORD
  5
29F
330
1
100
AcDbSymbolTableRecord
100
AcDbBlockTableRecord
  2
*D23
340
0
  0
BLOCK_RECORD
  5
2AB
330
1
100
AcDbSymbolTableRecord
100
AcDbBlockTableRecord
  2
*D24
340
0
  0
BLOCK_RECORD
  5
2B7
330
1
100
AcDbSymbolTableRecord
100
AcDbBlockTableRecord
  2
*D25
340
0
  0
BLOCK_RECORD
  5
2DF
330
1
100
AcDbSymbolTableRecord
100
AcDbBlockTableRecord
  2
*D26
340
0
  0
BLOCK_RECORD
  5
2F3
330
1
100
AcDbSymbolTableRecord
100
AcDbBlockTableRecord
  2
*D27
340
0
  0
BLOCK_RECORD
  5
302
330
1
100
AcDbSymbolTableRecord
100
AcDbBlockTableRecord
  2
*D28
340
0
  0
BLOCK_RECORD
  5
30D
330
1
100
AcDbSymbolTableRecord
100
AcDbBlockTableRecord
  2
*D29
340
0
  0
BLOCK_RECORD
  5
333
330
1
100
AcDbSymbolTableRecord
100
AcDbBlockTableRecord
  2
*D30
340
0
  0
ENDTAB
  0
ENDSEC
  0
SECTION
  2
BLOCKS
  0
BLOCK
  5
3
330
2
100
AcDbEntity
  8
0
100
AcDbBlockBegin
  2
*Model_Space
 70
     0
 10
0.0
 20
0.0
 30
0.0
  3
*Model_Space
  1

  0
ENDBLK
  5
9
330
2
100
AcDbEntity
  8
0
100
AcDbBlockEnd
  0
BLOCK
  5
D
330
C
100
AcDbEntity
 67
     1
  8
0
100
AcDbBlockBegin
  2
*Paper_Space
 70
     0
 10
0.0
 20
0.0
 30
0.0
  3
*Paper_Space
  1

  0
ENDBLK
  5
E
330
C
100
AcDbEntity
 67
     1
  8
0
100
AcDbBlockEnd
  0
BLOCK
  5
24
330
23
100
AcDbEntity
  8
0
100
AcDbBlockBegin
  2
_ArchTick
 70
     0
 10
0.0
 20
0.0
 30
0.0
  3
_ArchTick
  1

  0
LWPOLYLINE
  5
25
330
23
100
AcDbEntity
  8
0
  6
ByBlock
 62
     0
100
AcDbPolyline
 90
        2
 70
     0
 43
0.15
 10
-0.5
 20
-0.5
 10
0.5
 20
0.5
  0
ENDBLK
  5
26
330
23
100
AcDbEntity
  8
0
100
AcDbBlockEnd
  0
BLOCK
  5
20
330
1F
100
AcDbEntity
  8
0
100
AcDbBlockBegin
  2
_DatumFilled
 70
     0
 10
0.0
 20
0.0
 30
0.0
  3
_DatumFilled
  1

  0
SOLID
  5
21
330
1F
100
AcDbEntity
  8
0
  6
ByBlock
 62
     0
100
AcDbTrace
 10
0.0
 20
0.5773502700000001
 30
0.0
 11
-1.0
 21
0.0
 31
0.0
 12
0.0
 22
-0.5773502700000001
 32
0.0
 13
0.0
 23
-0.5773502700000001
 33
0.0
  0
ENDBLK
  5
22
330
1F
100
AcDbEntity
  8
0
100
AcDbBlockEnd
  0
BLOCK
  5
30
330
2F
100
AcDbEntity
  8
0
100
AcDbBlockBegin
  2
_OBLIQUE
 70
     0
 10
0.0
 20
0.0
 30
0.0
  3
_OBLIQUE
  1

  0
LINE
  5
31
330
2F
100
AcDbEntity
  8
0
  6
ByBlock
 62
     0
100
AcDbLine
 10
-0.5
 20
-0.5
 30
0.0
 11
0.5
 21
0.5
 31
0.0
  0
ENDBLK
  5
32
330
2F
100
AcDbEntity
  8
0
100
AcDbBlockEnd
  0
BLOCK
  5
13F
330
135
100
AcDbEntity
  8
0
 62
     6
100
AcDbBlockBegin
  2
*D3
 70
     1
 10
0.0
 20
0.0
 30
0.0
  3
*D3
  1

  0
LINE
  5
136
330
135
100
AcDbEntity
  8
PROFILE
 62
     0
370
    -2
100
AcDbLine
 10
279.9999999999997
 20
352.3333333333332
 30
0.0
 11
279.9999999999997
 21
313.3333333333333
 31
0.0
  0
LINE
  5
137
330
135
100
AcDbEntity
  8
PROFILE
 62
     0
370
    -2
100
AcDbLine
 10
309.9999999999996
 20
335.3333333333332
 30
0.0
 11
309.9999999999996
 21
313.3333333333333
 31
0.0
  0
LINE
  5
138
330
135
100
AcDbEntity
  8
PROFILE
 62
     0
370
    -2
100
AcDbLine
 10
279.333333333333
 20
314.0
 30
0.0
 11
310.6666666666663
 21
314.0
 31
0.0
  0
INSERT
  5
139
330
135
100
AcDbEntity
  8
PROFILE
 62
     0
370
    -2
100
AcDbBlockReference
  2
_ArchTick
 10
279.9999999999997
 20
314.0
 30
0.0
 50
180.0
  0
INSERT
  5
13A
330
135
100
AcDbEntity
  8
PROFILE
 62
     0
370
    -2
100
AcDbBlockReference
  2
_ArchTick
 10
309.9999999999996
 20
314.0
 30
0.0
  0
MTEXT
  5
13B
330
135
100
AcDbEntity
  8
PROFILE
 62
     7
100
AcDbMText
 10
294.9999999999997
 20
315.5184911242604
 30
0.0
 40
1.666666666666666
 41
0.0
 71
     5
 72
     1
  1
30
 73
     1
 44
1.0
  0
POINT
  5
13C
330
135
100
AcDbEntity
  8
Defpoints
 62
     0
100
AcDbPoint
 10
279.9999999999997
 20
352.9999999999998
 30
0.0
  0
POINT
  5
13D
330
135
100
AcDbEntity
  8
Defpoints
 62
     0
100
AcDbPoint
 10
309.9999999999996
 20
335.9999999999998
 30
0.0
  0
POINT
  5
13E
330
135
100
AcDbEntity
  8
Defpoints
 62
     0
100
AcDbPoint
 10
309.9999999999996
 20
314.0
 30
0.0
  0
ENDBLK
  5
140
330
135
100
AcDbEntity
  8
0
 62
     6
100
AcDbBlockEnd
  0
BLOCK
  5
14C
330
142
100
AcDbEntity
  8
0
 62
     6
100
AcDbBlockBegin
  2
*D4
 70
     1
 10
0.0
 20
0.0
 30
0.0
  3
*D4
  1

  0
LINE
  5
143
330
142
100
AcDbEntity
  8
PROFILE
 62
     0
370
    -2
100
AcDbLine
 10
309.9999999999996
 20
335.3333333333332
 30
0.0
 11
309.9999999999996
 21
313.3333333333333
 31
0.0
  0
LINE
  5
144
330
142
100
AcDbEntity
  8
PROFILE
 62
     0
370
    -2
100
AcDbLine
 10
314.9999999999999
 20
329.833333333333
 30
0.0
 11
314.9999999999999
 21
313.3333333333333
 31
0.0
  0
LINE
  5
145
330
142
100
AcDbEntity
  8
PROFILE
 62
     0
370
    -2
100
AcDbLine
 10
309.333333333333
 20
314.0
 30
0.0
 11
315.6666666666666
 21
314.0
 31
0.0
  0
INSERT
  5
146
330
142
100
AcDbEntity
  8
PROFILE
 62
     0
370
    -2
100
AcDbBlockReference
  2
_ArchTick
 10
309.9999999999996
 20
314.0
 30
0.0
 50
180.0
  0
INSERT
  5
147
330
142
100
AcDbEntity
  8
PROFILE
 62
     0
370
    -2
100
AcDbBlockReference
  2
_ArchTick
 10
314.9999999999999
 20
314.0
 30
0.0
  0
MTEXT
  5
148
330
142
100
AcDbEntity
  8
PROFILE
 62
     7
100
AcDbMText
 10
312.4999999999998
 20
315.5320512820513
 30
0.0
 40
1.666666666666666
 41
0.0
 71
     5
 72
     1
  1
5
 73
     1
 44
1.0
  0
POINT
  5
149
330
142
100
AcDbEntity
  8
Defpoints
 62
     0
100
AcDbPoint
 10
309.9999999999996
 20
335.9999999999998
 30
0.0
  0
POINT
  5
14A
330
142
100
AcDbEntity
  8
Defpoints
 62
     0
100
AcDbPoint
 10
314.9999999999999
 20
330.4999999999997
 30
0.0
  0
POINT
  5
14B
330
142
100
AcDbEntity
  8
Defpoints
 62
     0
100
AcDbPoint
 10
314.9999999999999
 20
314.0
 30
0.0
  0
ENDBLK
  5
14D
330
142
100
AcDbEntity
  8
0
 62
     6
100
AcDbBlockEnd
  0
BLOCK
  5
159
330
14F
100
AcDbEntity
  8
0
 62
     6
100
AcDbBlockBegin
  2
*D5
 70
     1
 10
0.0
 20
0.0
 30
0.0
  3
*D5
  1

  0
LINE
  5
150
330
14F
100
AcDbEntity
  8
PROFILE
 62
     0
370
    -2
100
AcDbLine
 10
314.9999999999999
 20
329.833333333333
 30
0.0
 11
314.9999999999999
 21
313.3333333333333
 31
0.0
  0
LINE
  5
151
330
14F
100
AcDbEntity
  8
PROFILE
 62
     0
370
    -2
100
AcDbLine
 10
399.9999999999987
 20
329.833333333333
 30
0.0
 11
399.9999999999987
 21
313.3333333333333
 31
0.0
  0
LINE
  5
152
330
14F
100
AcDbEntity
  8
PROFILE
 62
     0
370
    -2
100
AcDbLine
 10
314.3333333333332
 20
314.0
 30
0.0
 11
400.6666666666653
 21
314.0
 31
0.0
  0
INSERT
  5
153
330
14F
100
AcDbEntity
  8
PROFILE
 62
     0
370
    -2
100
AcDbBlockReference
  2
_ArchTick
 10
314.9999999999999
 20
314.0
 30
0.0
 50
180.0
  0
INSERT
  5
154
330
14F
100
AcDbEntity
  8
PROFILE
 62
     0
370
    -2
100
AcDbBlockReference
  2
_ArchTick
 10
399.9999999999987
 20
314.0
 30
0.0
  0
MTEXT
  5
155
330
14F
100
AcDbEntity
  8
PROFILE
 62
     7
100
AcDbMText
 10
357.4999999999993
 20
315.5320512820513
 30
0.0
 40
1.666666666666666
 41
0.0
 71
     5
 72
     1
  1
85
 73
     1
 44
1.0
  0
POINT
  5
156
330
14F
100
AcDbEntity
  8
Defpoints
 62
     0
100
AcDbPoint
 10
314.9999999999999
 20
330.4999999999997
 30
0.0
  0
POINT
  5
157
330
14F
100
AcDbEntity
  8
Defpoints
 62
     0
100
AcDbPoint
 10
399.9999999999987
 20
330.4999999999997
 30
0.0
  0
POINT
  5
158
330
14F
100
AcDbEntity
  8
Defpoints
 62
     0
100
AcDbPoint
 10
399.9999999999987
 20
314.0
 30
0.0
  0
ENDBLK
  5
15A
330
14F
100
AcDbEntity
  8
0
 62
     6
100
AcDbBlockEnd
  0
BLOCK
  5
166
330
15C
100
AcDbEntity
  8
0
 62
     6
100
AcDbBlockBegin
  2
*D6
 70
     1
 10
0.0
 20
0.0
 30
0.0
  3
*D6
  1

  0
LINE
  5
15D
330
15C
100
AcDbEntity
  8
PROFILE
 62
     0
370
    -2
100
AcDbLine
 10
314.9999999999999
 20
329.833333333333
 30
0.0
 11
314.9999999999999
 21
319.8333333333333
 31
0.0
  0
LINE
  5
15E
330
15C
100
AcDbEntity
  8
PROFILE
 62
     0
370
    -2
100
AcDbLine
 10
322.999999999999
 20
329.8333333333332
 30
0.0
 11
322.999999999999
 21
319.8333333333333
 31
0.0
  0
LINE
  5
15F
330
15C
100
AcDbEntity
  8
PROFILE
 62
     0
370
    -2
100
AcDbLine
 10
314.3333333333332
 20
320.5
 30
0.0
 11
323.6666666666657
 21
320.5
 31
0.0
  0
INSERT
  5
160
330
15C
100
AcDbEntity
  8
PROFILE
 62
     0
370
    -2
100
AcDbBlockReference
  2
_ArchTick
 10
314.9999999999999
 20
320.5
 30
0.0
 50
180.0
  0
INSERT
  5
161
330
15C
100
AcDbEntity
  8
PROFILE
 62
     0
370
    -2
100
AcDbBlockReference
  2
_ArchTick
 10
322.999999999999
 20
320.5
 30
0.0
  0
MTEXT
  5
162
330
15C
100
AcDbEntity
  8
PROFILE
 62
     7
100
AcDbMText
 10
318.9999999999994
 20
322.0172583826431
 30
0.0
 40
1.666666666666666
 41
0.0
 71
     5
 72
     1
  1
8
 73
     1
 44
1.0
  0
POINT
  5
163
330
15C
100
AcDbEntity
  8
Defpoints
 62
     0
100
AcDbPoint
 10
314.9999999999999
 20
330.4999999999997
 30
0.0
  0
POINT
  5
164
330
15C
100
AcDbEntity
  8
Defpoints
 62
     0
100
AcDbPoint
 10
322.999999999999
 20
330.4999999999998
 30
0.0
  0
POINT
  5
165
330
15C
100
AcDbEntity
  8
Defpoints
 62
     0
100
AcDbPoint
 10
322.999999999999
 20
320.5
 30
0.0
  0
ENDBLK
  5
167
330
15C
100
AcDbEntity
  8
0
 62
     6
100
AcDbBlockEnd
  0
BLOCK
  5
173
330
169
100
AcDbEntity
  8
0
 62
     6
100
AcDbBlockBegin
  2
*D7
 70
     1
 10
0.0
 20
0.0
 30
0.0
  3
*D7
  1

  0
LINE
  5
16A
330
169
100
AcDbEntity
  8
PROFILE
 62
     0
370
    -2
100
AcDbLine
 10
279.9999999999997
 20
352.3333333333332
 30
0.0
 11
279.9999999999997
 21
319.8333333333333
 31
0.0
  0
LINE
  5
16B
330
169
100
AcDbEntity
  8
PROFILE
 62
     0
370
    -2
100
AcDbLine
 10
308.9999999999997
 20
351.0833333333305
 30
0.0
 11
308.9999999999997
 21
319.8333333333333
 31
0.0
  0
LINE
  5
16C
330
169
100
AcDbEntity
  8
PROFILE
 62
     0
370
    -2
100
AcDbLine
 10
279.333333333333
 20
320.5
 30
0.0
 11
309.6666666666664
 21
320.5
 31
0.0
  0
INSERT
  5
16D
330
169
100
AcDbEntity
  8
PROFILE
 62
     0
370
    -2
100
AcDbBlockReference
  2
_ArchTick
 10
279.9999999999997
 20
320.5
 30
0.0
 50
180.0
  0
INSERT
  5
16E
330
169
100
AcDbEntity
  8
PROFILE
 62
     0
370
    -2
100
AcDbBlockReference
  2
_ArchTick
 10
308.9999999999997
 20
320.5
 30
0.0
  0
MTEXT
  5
16F
330
169
100
AcDbEntity
  8
PROFILE
 62
     7
100
AcDbMText
 10
294.4999999999997
 20
322.0271203155818
 30
0.0
 40
1.666666666666666
 41
0.0
 71
     5
 72
     1
  1
29
 73
     1
 44
1.0
  0
POINT
  5
170
330
169
100
AcDbEntity
  8
Defpoints
 62
     0
100
AcDbPoint
 10
279.9999999999997
 20
352.9999999999998
 30
0.0
  0
POINT
  5
171
330
169
100
AcDbEntity
  8
Defpoints
 62
     0
100
AcDbPoint
 10
308.9999999999997
 20
351.7499999999972
 30
0.0
  0
POINT
  5
172
330
169
100
AcDbEntity
  8
Defpoints
 62
     0
100
AcDbPoint
 10
308.9999999999997
 20
320.5
 30
0.0
  0
ENDBLK
  5
174
330
169
100
AcDbEntity
  8
0
 62
     6
100
AcDbBlockEnd
  0
BLOCK
  5
180
330
176
100
AcDbEntity
  8
0
 62
     6
100
AcDbBlockBegin
  2
*D8
 70
     1
 10
0.0
 20
0.0
 30
0.0
  3
*D8
  1

  0
LINE
  5
177
330
176
100
AcDbEntity
  8
PROFILE
 62
     0
370
    -2
100
AcDbLine
 10
149.9999999999999
 20
332.8758202226869
 30
0.0
 11
149.9999999999999
 21
313.3333333333333
 31
0.0
  0
LINE
  5
178
330
176
100
AcDbEntity
  8
PROFILE
 62
     0
370
    -2
100
AcDbLine
 10
209.9999999999999
 20
332.8758202226873
 30
0.0
 11
209.9999999999999
 21
313.3333333333333
 31
0.0
  0
LINE
  5
179
330
176
100
AcDbEntity
  8
PROFILE
 62
     0
370
    -2
100
AcDbLine
 10
149.3333333333332
 20
314.0
 30
0.0
 11
210.6666666666666
 21
314.0
 31
0.0
  0
INSERT
  5
17A
330
176
100
AcDbEntity
  8
PROFILE
 62
     0
370
    -2
100
AcDbBlockReference
  2
_ArchTick
 10
149.9999999999999
 20
314.0
 30
0.0
 50
180.0
  0
INSERT
  5
17B
330
176
100
AcDbEntity
  8
PROFILE
 62
     0
370
    -2
100
AcDbBlockReference
  2
_ArchTick
 10
209.9999999999999
 20
314.0
 30
0.0
  0
MTEXT
  5
17C
330
176
100
AcDbEntity
  8
PROFILE
 62
     7
100
AcDbMText
 10
179.9999999999999
 20
315.5246548323471
 30
0.0
 40
1.666666666666666
 41
0.0
 71
     5
 72
     1
  1
60
 73
     1
 44
1.0
  0
POINT
  5
17D
330
176
100
AcDbEntity
  8
Defpoints
 62
     0
100
AcDbPoint
 10
149.9999999999999
 20
333.5424868893536
 30
0.0
  0
POINT
  5
17E
330
176
100
AcDbEntity
  8
Defpoints
 62
     0
100
AcDbPoint
 10
209.9999999999999
 20
333.5424868893539
 30
0.0
  0
POINT
  5
17F
330
176
100
AcDbEntity
  8
Defpoints
 62
     0
100
AcDbPoint
 10
209.9999999999999
 20
314.0
 30
0.0
  0
ENDBLK
  5
181
330
176
100
AcDbEntity
  8
0
 62
     6
100
AcDbBlockEnd
  0
BLOCK
  5
18D
330
183
100
AcDbEntity
  8
0
 62
     6
100
AcDbBlockBegin
  2
*D9
 70
     1
 10
0.0
 20
0.0
 30
0.0
  3
*D9
  1

  0
LINE
  5
18F
330
183
100
AcDbEntity
  8
PROFILE
 62
     0
370
    -2
100
AcDbLine
 10
171.9999999999999
 20
359.3333333333333
 30
0.0
 11
171.9999999999999
 21
318.3333333333333
 31
0.0
  0
LINE
  5
190
330
183
100
AcDbEntity
  8
PROFILE
 62
     0
370
    -2
100
AcDbLine
 10
189.9999999999995
 20
356.8333333333332
 30
0.0
 11
189.9999999999995
 21
318.3333333333333
 31
0.0
  0
LINE
  5
191
330
183
100
AcDbEntity
  8
PROFILE
 62
     0
370
    -2
100
AcDbLine
 10
171.3333333333332
 20
319.0
 30
0.0
 11
190.6666666666663
 21
319.0
 31
0.0
  0
INSERT
  5
192
330
183
100
AcDbEntity
  8
PROFILE
 62
     0
370
    -2
100
AcDbBlockReference
  2
_ArchTick
 10
171.9999999999999
 20
319.0
 30
0.0
 50
180.0
  0
INSERT
  5
193
330
183
100
AcDbEntity
  8
PROFILE
 62
     0
370
    -2
100
AcDbBlockReference
  2
_ArchTick
 10
189.9999999999995
 20
319.0
 30
0.0
  0
MTEXT
  5
194
330
183
100
AcDbEntity
  8
PROFILE
 62
     7
100
AcDbMText
 10
180.9999999999998
 20
320.517258382643
 30
0.0
 40
1.666666666666666
 41
0.0
 71
     5
 72
     1
  1
18
 73
     1
 44
1.0
  0
POINT
  5
195
330
183
100
AcDbEntity
  8
Defpoints
 62
     0
100
AcDbPoint
 10
171.9999999999999
 20
360.0
 30
0.0
  0
POINT
  5
196
330
183
100
AcDbEntity
  8
Defpoints
 62
     0
100
AcDbPoint
 10
189.9999999999995
 20
357.4999999999998
 30
0.0
  0
POINT
  5
197
330
183
100
AcDbEntity
  8
Defpoints
 62
     0
100
AcDbPoint
 10
189.9999999999995
 20
319.0
 30
0.0
  0
ENDBLK
  5
18E
330
183
100
AcDbEntity
  8
0
 62
     6
100
AcDbBlockEnd
  0
BLOCK
  5
1A3
330
199
100
AcDbEntity
  8
0
 62
     6
100
AcDbBlockBegin
  2
*D10
 70
     1
 10
0.0
 20
0.0
 30
0.0
  3
*D10
  1

  0
LINE
  5
19A
330
199
100
AcDbEntity
  8
PROFILE
 62
     0
370
    -2
100
AcDbLine
 10
280.3333333333331
 20
351.9999999999998
 30
0.0
 11
267.3333333333333
 21
351.9999999999998
 31
0.0
  0
LINE
  5
19B
330
199
100
AcDbEntity
  8
PROFILE
 62
     0
370
    -2
100
AcDbLine
 10
280.3333333333331
 20
367.9999999999998
 30
0.0
 11
267.3333333333333
 21
367.9999999999998
 31
0.0
  0
LINE
  5
19C
330
199
100
AcDbEntity
  8
PROFILE
 62
     0
370
    -2
100
AcDbLine
 10
268.0
 20
351.3333333333331
 30
0.0
 11
268.0
 21
368.6666666666665
 31
0.0
  0
INSERT
  5
19D
330
199
100
AcDbEntity
  8
PROFILE
 62
     0
370
    -2
100
AcDbBlockReference
  2
_ArchTick
 10
268.0
 20
351.9999999999998
 30
0.0
 50
270.0
  0
INSERT
  5
19E
330
199
100
AcDbEntity
  8
PROFILE
 62
     0
370
    -2
100
AcDbBlockReference
  2
_ArchTick
 10
268.0
 20
367.9999999999998
 30
0.0
 50
90.0
  0
MTEXT
  5
19F
330
199
100
AcDbEntity
  8
PROFILE
 62
     7
100
AcDbMText
 10
266.3298816568047
 20
359.9999999999998
 30
0.0
 40
1.666666666666666
 41
0.0
 71
     5
 72
     1
  1
\A1;%%c16
 11
0.0000000000000001
 21
1.0
 31
0.0
 73
     1
 44
1.0
  0
POINT
  5
1A0
330
199
100
AcDbEntity
  8
Defpoints
 62
     0
100
AcDbPoint
 10
280.9999999999996
 20
351.9999999999998
 30
0.0
  0
POINT
  5
1A1
330
199
100
AcDbEntity
  8
Defpoints
 62
     0
100
AcDbPoint
 10
280.9999999999998
 20
367.9999999999998
 30
0.0
  0
POINT
  5
1A2
330
199
100
AcDbEntity
  8
Defpoints
 62
     0
100
AcDbPoint
 10
268.0
 20
367.9999999999998
 30
0.0
  0
ENDBLK
  5
1A4
330
199
100
AcDbEntity
  8
0
 62
     6
100
AcDbBlockEnd
  0
BLOCK
  5
1B0
330
1A6
100
AcDbEntity
  8
0
 62
     6
100
AcDbBlockBegin
  2
*D11
 70
     1
 10
0.0
 20
0.0
 30
0.0
  3
*D11
  1

  0
LINE
  5
1A7
330
1A6
100
AcDbEntity
  8
PROFILE
 62
     0
370
    -2
100
AcDbLine
 10
310.333333333333
 20
334.9999999999998
 30
0.0
 11
262.8333333333333
 21
334.9999999999998
 31
0.0
  0
LINE
  5
1A8
330
1A6
100
AcDbEntity
  8
PROFILE
 62
     0
370
    -2
100
AcDbLine
 10
310.333333333333
 20
384.9999999999998
 30
0.0
 11
262.8333333333334
 21
384.9999999999998
 31
0.0
  0
LINE
  5
1A9
330
1A6
100
AcDbEntity
  8
PROFILE
 62
     0
370
    -2
100
AcDbLine
 10
263.5
 20
334.3333333333331
 30
0.0
 11
263.5000000000001
 21
385.6666666666665
 31
0.0
  0
INSERT
  5
1AA
330
1A6
100
AcDbEntity
  8
PROFILE
 62
     0
370
    -2
100
AcDbBlockReference
  2
_ArchTick
 10
263.5
 20
334.9999999999998
 30
0.0
 50
270.0
  0
INSERT
  5
1AB
330
1A6
100
AcDbEntity
  8
PROFILE
 62
     0
370
    -2
100
AcDbBlockReference
  2
_ArchTick
 10
263.5000000000001
 20
384.9999999999998
 30
0.0
 50
90.0
  0
MTEXT
  5
1AC
330
1A6
100
AcDbEntity
  8
PROFILE
 62
     7
100
AcDbMText
 10
261.8298816568047
 20
359.9999999999998
 30
0.0
 40
1.666666666666666
 41
0.0
 71
     5
 72
     1
  1
\A1;%%c50
 11
0.0000000000000001
 21
1.0
 31
0.0
 73
     1
 44
1.0
  0
POINT
  5
1AD
330
1A6
100
AcDbEntity
  8
Defpoints
 62
     0
100
AcDbPoint
 10
310.9999999999997
 20
334.9999999999998
 30
0.0
  0
POINT
  5
1AE
330
1A6
100
AcDbEntity
  8
Defpoints
 62
     0
100
AcDbPoint
 10
310.9999999999997
 20
384.9999999999998
 30
0.0
  0
POINT
  5
1AF
330
1A6
100
AcDbEntity
  8
Defpoints
 62
     0
100
AcDbPoint
 10
263.5000000000001
 20
384.9999999999998
 30
0.0
  0
ENDBLK
  5
1B1
330
1A6
100
AcDbEntity
  8
0
 62
     6
100
AcDbBlockEnd
  0
BLOCK
  5
1C4
330
1BA
100
AcDbEntity
  8
0
 62
     6
100
AcDbBlockBegin
  2
*D12
 70
     1
 10
0.0
 20
0.0
 30
0.0
  3
*D12
  1

  0
LINE
  5
21A
330
1BA
100
AcDbEntity
  8
PROFILE
 62
     0
370
    -2
100
AcDbLine
 10
279.9999999999998
 20
172.3333333333332
 30
0.0
 11
279.9999999999998
 21
133.3333333333334
 31
0.0
  0
LINE
  5
21B
330
1BA
100
AcDbEntity
  8
PROFILE
 62
     0
370
    -2
100
AcDbLine
 10
309.9999999999998
 20
155.3333333333331
 30
0.0
 11
309.9999999999998
 21
133.3333333333334
 31
0.0
  0
LINE
  5
21C
330
1BA
100
AcDbEntity
  8
PROFILE
 62
     0
370
    -2
100
AcDbLine
 10
279.3333333333331
 20
134.0
 30
0.0
 11
310.6666666666665
 21
134.0
 31
0.0
  0
INSERT
  5
21D
330
1BA
100
AcDbEntity
  8
PROFILE
 62
     0
370
    -2
100
AcDbBlockReference
  2
_ArchTick
 10
279.9999999999998
 20
134.0
 30
0.0
 50
180.0
  0
INSERT
  5
21E
330
1BA
100
AcDbEntity
  8
PROFILE
 62
     0
370
    -2
100
AcDbBlockReference
  2
_ArchTick
 10
309.9999999999998
 20
134.0
 30
0.0
  0
MTEXT
  5
21F
330
1BA
100
AcDbEntity
  8
PROFILE
 62
     7
100
AcDbMText
 10
294.9999999999998
 20
135.5184911242604
 30
0.0
 40
1.666666666666666
 41
0.0
 71
     5
 72
     1
  1
30
 73
     1
 44
1.0
  0
POINT
  5
220
330
1BA
100
AcDbEntity
  8
Defpoints
 62
     0
100
AcDbPoint
 10
279.9999999999998
 20
172.9999999999998
 30
0.0
  0
POINT
  5
221
330
1BA
100
AcDbEntity
  8
Defpoints
 62
     0
100
AcDbPoint
 10
309.9999999999998
 20
155.9999999999998
 30
0.0
  0
POINT
  5
222
330
1BA
100
AcDbEntity
  8
Defpoints
 62
     0
100
AcDbPoint
 10
309.9999999999998
 20
134.0
 30
0.0
  0
ENDBLK
  5
1C5
330
1BA
100
AcDbEntity
  8
0
 62
     6
100
AcDbBlockEnd
  0
BLOCK
  5
1D0
330
1C6
100
AcDbEntity
  8
0
 62
     6
100
AcDbBlockBegin
  2
*D13
 70
     1
 10
0.0
 20
0.0
 30
0.0
  3
*D13
  1

  0
LINE
  5
262
330
1C6
100
AcDbEntity
  8
PROFILE
 62
     0
370
    -2
100
AcDbLine
 10
315.0
 20
149.8333333333331
 30
0.0
 11
315.0
 21
133.3333333333334
 31
0.0
  0
LINE
  5
263
330
1C6
100
AcDbEntity
  8
PROFILE
 62
     0
370
    -2
100
AcDbLine
 10
419.4999999999988
 20
149.833333333333
 30
0.0
 11
419.4999999999988
 21
133.3333333333334
 31
0.0
  0
LINE
  5
264
330
1C6
100
AcDbEntity
  8
PROFILE
 62
     0
370
    -2
100
AcDbLine
 10
314.3333333333333
 20
134.0
 30
0.0
 11
420.1666666666656
 21
134.0
 31
0.0
  0
INSERT
  5
265
330
1C6
100
AcDbEntity
  8
PROFILE
 62
     0
370
    -2
100
AcDbBlockReference
  2
_ArchTick
 10
315.0
 20
134.0
 30
0.0
 50
180.0
  0
INSERT
  5
266
330
1C6
100
AcDbEntity
  8
PROFILE
 62
     0
370
    -2
100
AcDbBlockReference
  2
_ArchTick
 10
419.4999999999988
 20
134.0
 30
0.0
  0
MTEXT
  5
267
330
1C6
100
AcDbEntity
  8
PROFILE
 62
     7
100
AcDbMText
 10
367.2499999999995
 20
135.5332840236687
 30
0.0
 40
1.666666666666666
 41
0.0
 71
     5
 72
     1
  1
104.5
 73
     1
 44
1.0
  0
POINT
  5
268
330
1C6
100
AcDbEntity
  8
Defpoints
 62
     0
100
AcDbPoint
 10
315.0
 20
150.4999999999997
 30
0.0
  0
POINT
  5
269
330
1C6
100
AcDbEntity
  8
Defpoints
 62
     0
100
AcDbPoint
 10
419.4999999999988
 20
150.4999999999997
 30
0.0
  0
POINT
  5
26A
330
1C6
100
AcDbEntity
  8
Defpoints
 62
     0
100
AcDbPoint
 10
419.4999999999988
 20
134.0
 30
0.0
  0
ENDBLK
  5
1D1
330
1C6
100
AcDbEntity
  8
0
 62
     6
100
AcDbBlockEnd
  0
BLOCK
  5
1DC
330
1D2
100
AcDbEntity
  8
0
 62
     6
100
AcDbBlockBegin
  2
*D14
 70
     1
 10
0.0
 20
0.0
 30
0.0
  3
*D14
  1

  0
LINE
  5
22C
330
1D2
100
AcDbEntity
  8
PROFILE
 62
     0
370
    -2
100
AcDbLine
 10
315.0
 20
149.8333333333331
 30
0.0
 11
315.0
 21
139.8333333333334
 31
0.0
  0
LINE
  5
22D
330
1D2
100
AcDbEntity
  8
PROFILE
 62
     0
370
    -2
100
AcDbLine
 10
322.9999999999991
 20
149.8333333333332
 30
0.0
 11
322.9999999999991
 21
139.8333333333334
 31
0.0
  0
LINE
  5
22E
330
1D2
100
AcDbEntity
  8
PROFILE
 62
     0
370
    -2
100
AcDbLine
 10
314.3333333333333
 20
140.5
 30
0.0
 11
323.6666666666658
 21
140.5
 31
0.0
  0
INSERT
  5
22F
330
1D2
100
AcDbEntity
  8
PROFILE
 62
     0
370
    -2
100
AcDbBlockReference
  2
_ArchTick
 10
315.0
 20
140.5
 30
0.0
 50
180.0
  0
INSERT
  5
230
330
1D2
100
AcDbEntity
  8
PROFILE
 62
     0
370
    -2
100
AcDbBlockReference
  2
_ArchTick
 10
322.9999999999991
 20
140.5
 30
0.0
  0
MTEXT
  5
231
330
1D2
100
AcDbEntity
  8
PROFILE
 62
     7
100
AcDbMText
 10
318.9999999999995
 20
142.017258382643
 30
0.0
 40
1.666666666666666
 41
0.0
 71
     5
 72
     1
  1
8
 73
     1
 44
1.0
  0
POINT
  5
232
330
1D2
100
AcDbEntity
  8
Defpoints
 62
     0
100
AcDbPoint
 10
315.0
 20
150.4999999999997
 30
0.0
  0
POINT
  5
233
330
1D2
100
AcDbEntity
  8
Defpoints
 62
     0
100
AcDbPoint
 10
322.9999999999991
 20
150.4999999999998
 30
0.0
  0
POINT
  5
234
330
1D2
100
AcDbEntity
  8
Defpoints
 62
     0
100
AcDbPoint
 10
322.9999999999991
 20
140.5
 30
0.0
  0
ENDBLK
  5
1DD
330
1D2
100
AcDbEntity
  8
0
 62
     6
100
AcDbBlockEnd
  0
BLOCK
  5
1E8
330
1DE
100
AcDbEntity
  8
0
 62
     6
100
AcDbBlockBegin
  2
*D15
 70
     1
 10
0.0
 20
0.0
 30
0.0
  3
*D15
  1

  0
LINE
  5
235
330
1DE
100
AcDbEntity
  8
PROFILE
 62
     0
370
    -2
100
AcDbLine
 10
279.9999999999998
 20
172.3333333333332
 30
0.0
 11
279.9999999999998
 21
139.8333333333334
 31
0.0
  0
LINE
  5
236
330
1DE
100
AcDbEntity
  8
PROFILE
 62
     0
370
    -2
100
AcDbLine
 10
308.9999999999998
 20
171.0833333333305
 30
0.0
 11
308.9999999999998
 21
139.8333333333334
 31
0.0
  0
LINE
  5
237
330
1DE
100
AcDbEntity
  8
PROFILE
 62
     0
370
    -2
100
AcDbLine
 10
279.3333333333331
 20
140.5
 30
0.0
 11
309.6666666666664
 21
140.5
 31
0.0
  0
INSERT
  5
238
330
1DE
100
AcDbEntity
  8
PROFILE
 62
     0
370
    -2
100
AcDbBlockReference
  2
_ArchTick
 10
279.9999999999998
 20
140.5
 30
0.0
 50
180.0
  0
INSERT
  5
239
330
1DE
100
AcDbEntity
  8
PROFILE
 62
     0
370
    -2
100
AcDbBlockReference
  2
_ArchTick
 10
308.9999999999998
 20
140.5
 30
0.0
  0
MTEXT
  5
23A
330
1DE
100
AcDbEntity
  8
PROFILE
 62
     7
100
AcDbMText
 10
294.4999999999998
 20
142.0271203155819
 30
0.0
 40
1.666666666666666
 41
0.0
 71
     5
 72
     1
  1
29
 73
     1
 44
1.0
  0
POINT
  5
23B
330
1DE
100
AcDbEntity
  8
Defpoints
 62
     0
100
AcDbPoint
 10
279.9999999999998
 20
172.9999999999998
 30
0.0
  0
POINT
  5
23C
330
1DE
100
AcDbEntity
  8
Defpoints
 62
     0
100
AcDbPoint
 10
308.9999999999998
 20
171.7499999999972
 30
0.0
  0
POINT
  5
23D
330
1DE
100
AcDbEntity
  8
Defpoints
 62
     0
100
AcDbPoint
 10
308.9999999999998
 20
140.5
 30
0.0
  0
ENDBLK
  5
1E9
330
1DE
100
AcDbEntity
  8
0
 62
     6
100
AcDbBlockEnd
  0
BLOCK
  5
1F4
330
1EA
100
AcDbEntity
  8
0
 62
     6
100
AcDbBlockBegin
  2
*D16
 70
     1
 10
0.0
 20
0.0
 30
0.0
  3
*D16
  1

  0
LINE
  5
23E
330
1EA
100
AcDbEntity
  8
PROFILE
 62
     0
370
    -2
100
AcDbLine
 10
150.0
 20
152.875820222687
 30
0.0
 11
150.0
 21
133.3333333333334
 31
0.0
  0
LINE
  5
23F
330
1EA
100
AcDbEntity
  8
PROFILE
 62
     0
370
    -2
100
AcDbLine
 10
210.0
 20
152.8758202226873
 30
0.0
 11
210.0
 21
133.3333333333334
 31
0.0
  0
LINE
  5
240
330
1EA
100
AcDbEntity
  8
PROFILE
 62
     0
370
    -2
100
AcDbLine
 10
149.3333333333333
 20
134.0
 30
0.0
 11
210.6666666666666
 21
134.0
 31
0.0
  0
INSERT
  5
241
330
1EA
100
AcDbEntity
  8
PROFILE
 62
     0
370
    -2
100
AcDbBlockReference
  2
_ArchTick
 10
150.0
 20
134.0
 30
0.0
 50
180.0
  0
INSERT
  5
242
330
1EA
100
AcDbEntity
  8
PROFILE
 62
     0
370
    -2
100
AcDbBlockReference
  2
_ArchTick
 10
210.0
 20
134.0
 30
0.0
  0
MTEXT
  5
243
330
1EA
100
AcDbEntity
  8
PROFILE
 62
     7
100
AcDbMText
 10
180.0
 20
135.5246548323472
 30
0.0
 40
1.666666666666666
 41
0.0
 71
     5
 72
     1
  1
60
 73
     1
 44
1.0
  0
POINT
  5
244
330
1EA
100
AcDbEntity
  8
Defpoints
 62
     0
100
AcDbPoint
 10
150.0
 20
153.5424868893536
 30
0.0
  0
POINT
  5
245
330
1EA
100
AcDbEntity
  8
Defpoints
 62
     0
100
AcDbPoint
 10
210.0
 20
153.542486889354
 30
0.0
  0
POINT
  5
246
330
1EA
100
AcDbEntity
  8
Defpoints
 62
     0
100
AcDbPoint
 10
210.0
 20
134.0
 30
0.0
  0
ENDBLK
  5
1F5
330
1EA
100
AcDbEntity
  8
0
 62
     6
100
AcDbBlockEnd
  0
BLOCK
  5
200
330
1F6
100
AcDbEntity
  8
0
 62
     6
100
AcDbBlockBegin
  2
*D17
 70
     1
 10
0.0
 20
0.0
 30
0.0
  3
*D17
  1

  0
LINE
  5
247
330
1F6
100
AcDbEntity
  8
PROFILE
 62
     0
370
    -2
100
AcDbLine
 10
172.0
 20
179.3333333333334
 30
0.0
 11
172.0
 21
138.3333333333334
 31
0.0
  0
LINE
  5
248
330
1F6
100
AcDbEntity
  8
PROFILE
 62
     0
370
    -2
100
AcDbLine
 10
189.9999999999996
 20
176.8333333333331
 30
0.0
 11
189.9999999999996
 21
138.3333333333334
 31
0.0
  0
LINE
  5
249
330
1F6
100
AcDbEntity
  8
PROFILE
 62
     0
370
    -2
100
AcDbLine
 10
171.3333333333333
 20
139.0
 30
0.0
 11
190.6666666666664
 21
139.0
 31
0.0
  0
INSERT
  5
24A
330
1F6
100
AcDbEntity
  8
PROFILE
 62
     0
370
    -2
100
AcDbBlockReference
  2
_ArchTick
 10
172.0
 20
139.0
 30
0.0
 50
180.0
  0
INSERT
  5
24B
330
1F6
100
AcDbEntity
  8
PROFILE
 62
     0
370
    -2
100
AcDbBlockReference
  2
_ArchTick
 10
189.9999999999996
 20
139.0
 30
0.0
  0
MTEXT
  5
24C
330
1F6
100
AcDbEntity
  8
PROFILE
 62
     7
100
AcDbMText
 10
180.9999999999999
 20
140.517258382643
 30
0.0
 40
1.666666666666666
 41
0.0
 71
     5
 72
     1
  1
18
 73
     1
 44
1.0
  0
POINT
  5
24D
330
1F6
100
AcDbEntity
  8
Defpoints
 62
     0
100
AcDbPoint
 10
172.0
 20
180.0
 30
0.0
  0
POINT
  5
24E
330
1F6
100
AcDbEntity
  8
Defpoints
 62
     0
100
AcDbPoint
 10
189.9999999999996
 20
177.4999999999998
 30
0.0
  0
POINT
  5
24F
330
1F6
100
AcDbEntity
  8
Defpoints
 62
     0
100
AcDbPoint
 10
189.9999999999996
 20
139.0
 30
0.0
  0
ENDBLK
  5
201
330
1F6
100
AcDbEntity
  8
0
 62
     6
100
AcDbBlockEnd
  0
BLOCK
  5
20C
330
202
100
AcDbEntity
  8
0
 62
     6
100
AcDbBlockBegin
  2
*D18
 70
     1
 10
0.0
 20
0.0
 30
0.0
  3
*D18
  1

  0
LINE
  5
250
330
202
100
AcDbEntity
  8
PROFILE
 62
     0
370
    -2
100
AcDbLine
 10
280.3333333333331
 20
171.9999999999998
 30
0.0
 11
267.3333333333334
 21
171.9999999999998
 31
0.0
  0
LINE
  5
251
330
202
100
AcDbEntity
  8
PROFILE
 62
     0
370
    -2
100
AcDbLine
 10
280.3333333333332
 20
187.9999999999999
 30
0.0
 11
267.3333333333334
 21
187.9999999999999
 31
0.0
  0
LINE
  5
252
330
202
100
AcDbEntity
  8
PROFILE
 62
     0
370
    -2
100
AcDbLine
 10
268.0000000000001
 20
171.3333333333332
 30
0.0
 11
268.0000000000001
 21
188.6666666666665
 31
0.0
  0
INSERT
  5
253
330
202
100
AcDbEntity
  8
PROFILE
 62
     0
370
    -2
100
AcDbBlockReference
  2
_ArchTick
 10
268.0000000000001
 20
171.9999999999998
 30
0.0
 50
270.0
  0
INSERT
  5
254
330
202
100
AcDbEntity
  8
PROFILE
 62
     0
370
    -2
100
AcDbBlockReference
  2
_ArchTick
 10
268.0000000000001
 20
187.9999999999999
 30
0.0
 50
90.0
  0
MTEXT
  5
255
330
202
100
AcDbEntity
  8
PROFILE
 62
     7
100
AcDbMText
 10
266.3298816568048
 20
179.9999999999999
 30
0.0
 40
1.666666666666666
 41
0.0
 71
     5
 72
     1
  1
\A1;%%c16
 11
0.0000000000000001
 21
1.0
 31
0.0
 73
     1
 44
1.0
  0
POINT
  5
256
330
202
100
AcDbEntity
  8
Defpoints
 62
     0
100
AcDbPoint
 10
280.9999999999998
 20
171.9999999999998
 30
0.0
  0
POINT
  5
257
330
202
100
AcDbEntity
  8
Defpoints
 62
     0
100
AcDbPoint
 10
281.0
 20
187.9999999999999
 30
0.0
  0
POINT
  5
258
330
202
100
AcDbEntity
  8
Defpoints
 62
     0
100
AcDbPoint
 10
268.0000000000001
 20
187.9999999999999
 30
0.0
  0
ENDBLK
  5
20D
330
202
100
AcDbEntity
  8
0
 62
     6
100
AcDbBlockEnd
  0
BLOCK
  5
218
330
20E
100
AcDbEntity
  8
0
 62
     6
100
AcDbBlockBegin
  2
*D19
 70
     1
 10
0.0
 20
0.0
 30
0.0
  3
*D19
  1

  0
LINE
  5
259
330
20E
100
AcDbEntity
  8
PROFILE
 62
     0
370
    -2
100
AcDbLine
 10
310.3333333333332
 20
154.9999999999998
 30
0.0
 11
262.8333333333335
 21
154.9999999999998
 31
0.0
  0
LINE
  5
25A
330
20E
100
AcDbEntity
  8
PROFILE
 62
     0
370
    -2
100
AcDbLine
 10
310.3333333333332
 20
204.9999999999998
 30
0.0
 11
262.8333333333335
 21
204.9999999999998
 31
0.0
  0
LINE
  5
25B
330
20E
100
AcDbEntity
  8
PROFILE
 62
     0
370
    -2
100
AcDbLine
 10
263.5000000000002
 20
154.3333333333331
 30
0.0
 11
263.5000000000002
 21
205.6666666666665
 31
0.0
  0
INSERT
  5
25C
330
20E
100
AcDbEntity
  8
PROFILE
 62
     0
370
    -2
100
AcDbBlockReference
  2
_ArchTick
 10
263.5000000000002
 20
154.9999999999998
 30
0.0
 50
270.0
  0
INSERT
  5
25D
330
20E
100
AcDbEntity
  8
PROFILE
 62
     0
370
    -2
100
AcDbBlockReference
  2
_ArchTick
 10
263.5000000000002
 20
204.9999999999998
 30
0.0
 50
90.0
  0
MTEXT
  5
25E
330
20E
100
AcDbEntity
  8
PROFILE
 62
     7
100
AcDbMText
 10
261.8298816568048
 20
179.9999999999998
 30
0.0
 40
1.666666666666666
 41
0.0
 71
     5
 72
     1
  1
\A1;%%c50
 11
0.0000000000000001
 21
1.0
 31
0.0
 73
     1
 44
1.0
  0
POINT
  5
25F
330
20E
100
AcDbEntity
  8
Defpoints
 62
     0
100
AcDbPoint
 10
310.9999999999998
 20
154.9999999999998
 30
0.0
  0
POINT
  5
260
330
20E
100
AcDbEntity
  8
Defpoints
 62
     0
100
AcDbPoint
 10
310.9999999999998
 20
204.9999999999998
 30
0.0
  0
POINT
  5
261
330
20E
100
AcDbEntity
  8
Defpoints
 62
     0
100
AcDbPoint
 10
263.5000000000002
 20
204.9999999999998
 30
0.0
  0
ENDBLK
  5
219
330
20E
100
AcDbEntity
  8
0
 62
     6
100
AcDbBlockEnd
  0
BLOCK
  5
280
330
276
100
AcDbEntity
  8
0
 62
     6
100
AcDbBlockBegin
  2
*D20
 70
     1
 10
0.0
 20
0.0
 30
0.0
  3
*D20
  1

  0
LINE
  5
277
330
276
100
AcDbEntity
  8
PROFILE
 62
     0
370
    -2
100
AcDbLine
 10
190.6666666666662
 20
357.4999999999998
 30
0.0
 11
218.6666666666666
 21
357.4999999999998
 31
0.0
  0
LINE
  5
278
330
276
100
AcDbEntity
  8
PROFILE
 62
     0
370
    -2
100
AcDbLine
 10
190.6666666666662
 20
362.5
 30
0.0
 11
218.6666666666666
 21
362.5
 31
0.0
  0
LINE
  5
279
330
276
100
AcDbEntity
  8
PROFILE
 62
     0
370
    -2
100
AcDbLine
 10
218.0
 20
356.8333333333332
 30
0.0
 11
218.0
 21
363.1666666666667
 31
0.0
  0
INSERT
  5
27A
330
276
100
AcDbEntity
  8
PROFILE
 62
     0
370
    -2
100
AcDbBlockReference
  2
_ArchTick
 10
218.0
 20
357.4999999999998
 30
0.0
 41
1.0
 42
1.0
 43
1.0
 50
270.0
  0
INSERT
  5
27B
330
276
100
AcDbEntity
  8
PROFILE
 62
     0
370
    -2
100
AcDbBlockReference
  2
_ArchTick
 10
218.0
 20
362.5
 30
0.0
 41
1.0
 42
1.0
 43
1.0
 50
90.0
  0
MTEXT
  5
27C
330
276
100
AcDbEntity
  8
PROFILE
 62
     7
100
AcDbMText
 10
216.4679487179487
 20
360.0
 30
0.0
 40
1.666666666666667
 41
0.0
 71
     5
 72
     1
  1
5
 11
0.0000000000000001
 21
1.0
 31
0.0
 73
     1
 44
1.0
  0
POINT
  5
27D
330
276
100
AcDbEntity
  8
Defpoints
 62
     0
100
AcDbPoint
 10
189.9999999999995
 20
357.4999999999998
 30
0.0
  0
POINT
  5
27E
330
276
100
AcDbEntity
  8
Defpoints
 62
     0
100
AcDbPoint
 10
189.9999999999995
 20
362.5
 30
0.0
  0
POINT
  5
27F
330
276
100
AcDbEntity
  8
Defpoints
 62
     0
100
AcDbPoint
 10
218.0
 20
362.5
 30
0.0
  0
ENDBLK
  5
281
330
276
100
AcDbEntity
  8
0
 62
     6
100
AcDbBlockEnd
  0
BLOCK
  5
28D
330
283
100
AcDbEntity
  8
0
 62
     6
100
AcDbBlockBegin
  2
*D21
 70
     1
 10
0.0
 20
0.0
 30
0.0
  3
*D21
  1

  0
LINE
  5
284
330
283
100
AcDbEntity
  8
PROFILE
 62
     0
370
    -2
100
AcDbLine
 10
282.9999999999996
 20
359.3333333333331
 30
0.0
 11
282.9999999999996
 21
342.8333333333333
 31
0.0
  0
LINE
  5
285
330
283
100
AcDbEntity
  8
PROFILE
 62
     0
370
    -2
100
AcDbLine
 10
279.9999999999997
 20
352.3333333333332
 30
0.0
 11
279.9999999999997
 21
342.8333333333333
 31
0.0
  0
LINE
  5
286
330
283
100
AcDbEntity
  8
PROFILE
 62
     0
370
    -2
100
AcDbLine
 10
283.6666666666662
 20
343.5
 30
0.0
 11
279.333333333333
 21
343.5
 31
0.0
  0
INSERT
  5
287
330
283
100
AcDbEntity
  8
PROFILE
 62
     0
370
    -2
100
AcDbBlockReference
  2
_ArchTick
 10
282.9999999999996
 20
343.5
 30
0.0
 41
1.0
 42
1.0
 43
1.0
  0
INSERT
  5
288
330
283
100
AcDbEntity
  8
PROFILE
 62
     0
370
    -2
100
AcDbBlockReference
  2
_ArchTick
 10
279.9999999999997
 20
343.5
 30
0.0
 41
1.0
 42
1.0
 43
1.0
 50
180.0
  0
MTEXT
  5
289
330
283
100
AcDbEntity
  8
PROFILE
 62
     7
100
AcDbMText
 10
281.4999999999997
 20
345.017258382643
 30
0.0
 40
1.666666666666667
 41
0.0
 71
     5
 72
     1
  1
3
 73
     1
 44
1.0
  0
POINT
  5
28A
330
283
100
AcDbEntity
  8
Defpoints
 62
     0
100
AcDbPoint
 10
282.9999999999996
 20
359.9999999999998
 30
0.0
  0
POINT
  5
28B
330
283
100
AcDbEntity
  8
Defpoints
 62
     0
100
AcDbPoint
 10
279.9999999999997
 20
352.9999999999998
 30
0.0
  0
POINT
  5
28C
330
283
100
AcDbEntity
  8
Defpoints
 62
     0
100
AcDbPoint
 10
279.9999999999997
 20
343.5
 30
0.0
  0
ENDBLK
  5
28E
330
283
100
AcDbEntity
  8
0
 62
     6
100
AcDbBlockEnd
  0
BLOCK
  5
29A
330
290
100
AcDbEntity
  8
0
 62
     6
100
AcDbBlockBegin
  2
*D22
 70
     1
 10
0.0
 20
0.0
 30
0.0
  3
*D22
  1

  0
LINE
  5
291
330
290
100
AcDbEntity
  8
PROFILE
 62
     0
370
    -2
100
AcDbLine
 10
282.9999999999996
 20
359.3333333333331
 30
0.0
 11
282.9999999999996
 21
342.8333333333333
 31
0.0
  0
LINE
  5
292
330
290
100
AcDbEntity
  8
PROFILE
 62
     0
370
    -2
100
AcDbLine
 10
302.9999999999998
 20
359.3333333333331
 30
0.0
 11
302.9999999999998
 21
342.8333333333333
 31
0.0
  0
LINE
  5
293
330
290
100
AcDbEntity
  8
PROFILE
 62
     0
370
    -2
100
AcDbLine
 10
282.3333333333329
 20
343.5
 30
0.0
 11
303.6666666666665
 21
343.5
 31
0.0
  0
INSERT
  5
294
330
290
100
AcDbEntity
  8
PROFILE
 62
     0
370
    -2
100
AcDbBlockReference
  2
_ArchTick
 10
282.9999999999996
 20
343.5
 30
0.0
 41
1.0
 42
1.0
 43
1.0
 50
180.0
  0
INSERT
  5
295
330
290
100
AcDbEntity
  8
PROFILE
 62
     0
370
    -2
100
AcDbBlockReference
  2
_ArchTick
 10
302.9999999999998
 20
343.5
 30
0.0
 41
1.0
 42
1.0
 43
1.0
  0
MTEXT
  5
296
330
290
100
AcDbEntity
  8
PROFILE
 62
     7
100
AcDbMText
 10
292.9999999999997
 20
345.0184911242604
 30
0.0
 40
1.666666666666667
 41
0.0
 71
     5
 72
     1
  1
20
 73
     1
 44
1.0
  0
POINT
  5
297
330
290
100
AcDbEntity
  8
Defpoints
 62
     0
100
AcDbPoint
 10
282.9999999999996
 20
359.9999999999998
 30
0.0
  0
POINT
  5
298
330
290
100
AcDbEntity
  8
Defpoints
 62
     0
100
AcDbPoint
 10
302.9999999999998
 20
359.9999999999998
 30
0.0
  0
POINT
  5
299
330
290
100
AcDbEntity
  8
Defpoints
 62
     0
100
AcDbPoint
 10
302.9999999999998
 20
343.5
 30
0.0
  0
ENDBLK
  5
29B
330
290
100
AcDbEntity
  8
0
 62
     6
100
AcDbBlockEnd
  0
BLOCK
  5
2A9
330
29F
100
AcDbEntity
  8
0
 62
     6
100
AcDbBlockBegin
  2
*D23
 70
     1
 10
0.0
 20
0.0
 30
0.0
  3
*D23
  1

  0
LINE
  5
2C3
330
29F
100
AcDbEntity
  8
PROFILE
 62
     0
370
    -2
100
AcDbLine
 10
282.9999999999996
 20
179.3333333333331
 30
0.0
 11
282.9999999999996
 21
162.8333333333333
 31
0.0
  0
LINE
  5
2C4
330
29F
100
AcDbEntity
  8
PROFILE
 62
     0
370
    -2
100
AcDbLine
 10
279.9999999999997
 20
172.3333333333331
 30
0.0
 11
279.9999999999997
 21
162.8333333333333
 31
0.0
  0
LINE
  5
2C5
330
29F
100
AcDbEntity
  8
PROFILE
 62
     0
370
    -2
100
AcDbLine
 10
283.6666666666662
 20
163.4999999999999
 30
0.0
 11
279.333333333333
 21
163.4999999999999
 31
0.0
  0
INSERT
  5
2C6
330
29F
100
AcDbEntity
  8
PROFILE
 62
     0
370
    -2
100
AcDbBlockReference
  2
_ArchTick
 10
282.9999999999996
 20
163.4999999999999
 30
0.0
 41
1.0
 42
1.0
 43
1.0
  0
INSERT
  5
2C7
330
29F
100
AcDbEntity
  8
PROFILE
 62
     0
370
    -2
100
AcDbBlockReference
  2
_ArchTick
 10
279.9999999999997
 20
163.4999999999999
 30
0.0
 41
1.0
 42
1.0
 43
1.0
 50
180.0
  0
MTEXT
  5
2C8
330
29F
100
AcDbEntity
  8
PROFILE
 62
     7
100
AcDbMText
 10
281.4999999999997
 20
165.017258382643
 30
0.0
 40
1.666666666666667
 41
0.0
 71
     5
 72
     1
  1
3
 73
     1
 44
1.0
  0
POINT
  5
2C9
330
29F
100
AcDbEntity
  8
Defpoints
 62
     0
100
AcDbPoint
 10
282.9999999999996
 20
179.9999999999998
 30
0.0
  0
POINT
  5
2CA
330
29F
100
AcDbEntity
  8
Defpoints
 62
     0
100
AcDbPoint
 10
279.9999999999997
 20
172.9999999999998
 30
0.0
  0
POINT
  5
2CB
330
29F
100
AcDbEntity
  8
Defpoints
 62
     0
100
AcDbPoint
 10
279.9999999999997
 20
163.4999999999999
 30
0.0
  0
ENDBLK
  5
2AA
330
29F
100
AcDbEntity
  8
0
 62
     6
100
AcDbBlockEnd
  0
BLOCK
  5
2B5
330
2AB
100
AcDbEntity
  8
0
 62
     6
100
AcDbBlockBegin
  2
*D24
 70
     1
 10
0.0
 20
0.0
 30
0.0
  3
*D24
  1

  0
LINE
  5
2CC
330
2AB
100
AcDbEntity
  8
PROFILE
 62
     0
370
    -2
100
AcDbLine
 10
282.9999999999996
 20
179.3333333333331
 30
0.0
 11
282.9999999999996
 21
162.8333333333333
 31
0.0
  0
LINE
  5
2CD
330
2AB
100
AcDbEntity
  8
PROFILE
 62
     0
370
    -2
100
AcDbLine
 10
302.9999999999998
 20
179.3333333333331
 30
0.0
 11
302.9999999999998
 21
162.8333333333333
 31
0.0
  0
LINE
  5
2CE
330
2AB
100
AcDbEntity
  8
PROFILE
 62
     0
370
    -2
100
AcDbLine
 10
282.3333333333329
 20
163.4999999999999
 30
0.0
 11
303.6666666666665
 21
163.4999999999999
 31
0.0
  0
INSERT
  5
2CF
330
2AB
100
AcDbEntity
  8
PROFILE
 62
     0
370
    -2
100
AcDbBlockReference
  2
_ArchTick
 10
282.9999999999996
 20
163.4999999999999
 30
0.0
 41
1.0
 42
1.0
 43
1.0
 50
180.0
  0
INSERT
  5
2D0
330
2AB
100
AcDbEntity
  8
PROFILE
 62
     0
370
    -2
100
AcDbBlockReference
  2
_ArchTick
 10
302.9999999999998
 20
163.4999999999999
 30
0.0
 41
1.0
 42
1.0
 43
1.0
  0
MTEXT
  5
2D1
330
2AB
100
AcDbEntity
  8
PROFILE
 62
     7
100
AcDbMText
 10
292.9999999999997
 20
165.0184911242603
 30
0.0
 40
1.666666666666667
 41
0.0
 71
     5
 72
     1
  1
20
 73
     1
 44
1.0
  0
POINT
  5
2D2
330
2AB
100
AcDbEntity
  8
Defpoints
 62
     0
100
AcDbPoint
 10
282.9999999999996
 20
179.9999999999998
 30
0.0
  0
POINT
  5
2D3
330
2AB
100
AcDbEntity
  8
Defpoints
 62
     0
100
AcDbPoint
 10
302.9999999999998
 20
179.9999999999998
 30
0.0
  0
POINT
  5
2D4
330
2AB
100
AcDbEntity
  8
Defpoints
 62
     0
100
AcDbPoint
 10
302.9999999999998
 20
163.4999999999999
 30
0.0
  0
ENDBLK
  5
2B6
330
2AB
100
AcDbEntity
  8
0
 62
     6
100
AcDbBlockEnd
  0
BLOCK
  5
2C1
330
2B7
100
AcDbEntity
  8
0
 62
     6
100
AcDbBlockBegin
  2
*D25
 70
     1
 10
0.0
 20
0.0
 30
0.0
  3
*D25
  1

  0
LINE
  5
2D5
330
2B7
100
AcDbEntity
  8
PROFILE
 62
     0
370
    -2
100
AcDbLine
 10
190.6666666666662
 20
177.4999999999998
 30
0.0
 11
218.6666666666666
 21
177.4999999999997
 31
0.0
  0
LINE
  5
2D6
330
2B7
100
AcDbEntity
  8
PROFILE
 62
     0
370
    -2
100
AcDbLine
 10
190.6666666666662
 20
182.5
 30
0.0
 11
218.6666666666666
 21
182.4999999999999
 31
0.0
  0
LINE
  5
2D7
330
2B7
100
AcDbEntity
  8
PROFILE
 62
     0
370
    -2
100
AcDbLine
 10
218.0
 20
176.8333333333331
 30
0.0
 11
218.0
 21
183.1666666666666
 31
0.0
  0
INSERT
  5
2D8
330
2B7
100
AcDbEntity
  8
PROFILE
 62
     0
370
    -2
100
AcDbBlockReference
  2
_ArchTick
 10
218.0
 20
177.4999999999997
 30
0.0
 41
1.0
 42
1.0
 43
1.0
 50
270.0
  0
INSERT
  5
2D9
330
2B7
100
AcDbEntity
  8
PROFILE
 62
     0
370
    -2
100
AcDbBlockReference
  2
_ArchTick
 10
218.0
 20
182.4999999999999
 30
0.0
 41
1.0
 42
1.0
 43
1.0
 50
90.0
  0
MTEXT
  5
2DA
330
2B7
100
AcDbEntity
  8
PROFILE
 62
     7
100
AcDbMText
 10
216.4679487179487
 20
179.9999999999999
 30
0.0
 40
1.666666666666667
 41
0.0
 71
     5
 72
     1
  1
5
 11
0.0000000000000001
 21
1.0
 31
0.0
 73
     1
 44
1.0
  0
POINT
  5
2DB
330
2B7
100
AcDbEntity
  8
Defpoints
 62
     0
100
AcDbPoint
 10
189.9999999999995
 20
177.4999999999998
 30
0.0
  0
POINT
  5
2DC
330
2B7
100
AcDbEntity
  8
Defpoints
 62
     0
100
AcDbPoint
 10
189.9999999999995
 20
182.5
 30
0.0
  0
POINT
  5
2DD
330
2B7
100
AcDbEntity
  8
Defpoints
 62
     0
100
AcDbPoint
 10
218.0
 20
182.4999999999999
 30
0.0
  0
ENDBLK
  5
2C2
330
2B7
100
AcDbEntity
  8
0
 62
     6
100
AcDbBlockEnd
  0
BLOCK
  5
2E8
330
2DF
100
AcDbEntity
  8
0
 62
     6
100
AcDbBlockBegin
  2
*D26
 70
     1
 10
0.0
 20
0.0
 30
0.0
  3
*D26
  1

  0
LINE
  5
2EA
330
2DF
100
AcDbEntity
  8
PROFILE
 62
     0
370
    -2
100
AcDbLine
 10
214.554121312803
 20
384.1340341006184
 30
0.0
 11
209.7824250603376
 21
384.1340341006184
 31
0.0
  0
LINE
  5
2EB
330
2DF
100
AcDbEntity
  8
PROFILE
 62
     0
370
    -2
100
AcDbLine
 10
209.7824250603376
 20
384.1340341006184
 30
0.0
 11
208.487537014236
 21
383.0847282701567
 31
0.0
  0
MTEXT
  5
2EC
330
2DF
100
AcDbEntity
  8
PROFILE
 62
     7
100
AcDbMText
 10
212.5016065199037
 20
385.8041524438137
 30
0.0
 40
1.666666666666666
 41
0.0
 71
     5
 72
     1
  1
\A1;\U+220570
 73
     1
 44
1.0
  0
SOLID
  5
2ED
330
2DF
100
AcDbEntity
  8
PROFILE
 62
     0
100
AcDbTrace
 10
208.3126527091591
 20
383.300542944507
 30
0.0
 11
208.6624213193129
 21
382.8689135958065
 31
0.0
 12
207.1926489681343
 22
382.035422439695
 32
0.0
 13
207.1926489681343
 23
382.035422439695
 33
0.0
  0
LINE
  5
2EE
330
2DF
100
AcDbEntity
  8
PROFILE
 62
     0
370
    -2
100
AcDbLine
 10
179.3333333333333
 20
360.0
 30
0.0
 11
180.6666666666665
 21
360.0
 31
0.0
  0
LINE
  5
2EF
330
2DF
100
AcDbEntity
  8
PROFILE
 62
     0
370
    -2
100
AcDbLine
 10
179.9999999999999
 20
359.3333333333334
 30
0.0
 11
179.9999999999999
 21
360.6666666666667
 31
0.0
  0
POINT
  5
2F0
330
2DF
100
AcDbEntity
  8
Defpoints
 62
     0
100
AcDbPoint
 10
207.1926489681343
 20
382.035422439695
 30
0.0
  0
POINT
  5
2F1
330
2DF
100
AcDbEntity
  8
Defpoints
 62
     0
100
AcDbPoint
 10
152.8073510318655
 20
337.9645775603048
 30
0.0
  0
ENDBLK
  5
2E9
330
2DF
100
AcDbEntity
  8
0
 62
     6
100
AcDbBlockEnd
  0
BLOCK
  5
2FE
330
2F3
100
AcDbEntity
  8
0
 62
     6
100
AcDbBlockBegin
  2
*D27
 70
     1
 10
0.0
 20
0.0
 30
0.0
  3
*D27
  1

  0
LINE
  5
2F4
330
2F3
100
AcDbEntity
  8
PROFILE
 62
     0
370
    -2
100
AcDbLine
 10
201.998737341529
 20
385.4154040081958
 30
0.0
 11
201.998737341529
 21
394.1666666666667
 31
0.0
  0
LINE
  5
2F5
330
2F3
100
AcDbEntity
  8
PROFILE
 62
     0
370
    -2
100
AcDbLine
 10
207.498737341529
 20
385.4154040081958
 30
0.0
 11
207.498737341529
 21
394.1666666666667
 31
0.0
  0
LINE
  5
2F6
330
2F3
100
AcDbEntity
  8
PROFILE
 62
     0
370
    -2
100
AcDbLine
 10
201.3320706748623
 20
393.5
 30
0.0
 11
207.498737341529
 21
393.5
 31
0.0
  0
LINE
  5
2F7
330
2F3
100
AcDbEntity
  8
PROFILE
 62
     0
370
    -2
100
AcDbLine
 10
207.498737341529
 20
393.5
 30
0.0
 11
214.4622481896552
 21
393.5
 31
0.0
  0
INSERT
  5
2F8
330
2F3
100
AcDbEntity
  8
PROFILE
 62
     0
370
    -2
100
AcDbBlockReference
  2
_ArchTick
 10
201.998737341529
 20
393.5
 30
0.0
 50
180.0
  0
INSERT
  5
2F9
330
2F3
100
AcDbEntity
  8
PROFILE
 62
     0
370
    -2
100
AcDbBlockReference
  2
_ArchTick
 10
207.498737341529
 20
393.5
 30
0.0
  0
MTEXT
  5
2FA
330
2F3
100
AcDbEntity
  8
PROFILE
 62
     7
100
AcDbMText
 10
211.4804927655921
 20
395.1701183431953
 30
0.0
 40
1.666666666666666
 41
0.0
 71
     5
 72
     1
  1
\A1;%%c5.5
 73
     1
 44
1.0
  0
POINT
  5
2FB
330
2F3
100
AcDbEntity
  8
Defpoints
 62
     0
100
AcDbPoint
 10
201.998737341529
 20
384.7487373415291
 30
0.0
  0
POINT
  5
2FC
330
2F3
100
AcDbEntity
  8
Defpoints
 62
     0
100
AcDbPoint
 10
207.498737341529
 20
384.7487373415291
 30
0.0
  0
POINT
  5
2FD
330
2F3
100
AcDbEntity
  8
Defpoints
 62
     0
100
AcDbPoint
 10
207.498737341529
 20
393.5
 30
0.0
  0
ENDBLK
  5
2FF
330
2F3
100
AcDbEntity
  8
0
 62
     6
100
AcDbBlockEnd
  0
BLOCK
  5
30B
330
302
100
AcDbEntity
  8
0
 62
     6
100
AcDbBlockBegin
  2
*D28
 70
     1
 10
0.0
 20
0.0
 30
0.0
  3
*D28
  1

  0
LINE
  5
31A
330
302
100
AcDbEntity
  8
PROFILE
 62
     0
370
    -2
100
AcDbLine
 10
214.5541213128032
 20
204.1340341006183
 30
0.0
 11
209.7824250603377
 21
204.1340341006183
 31
0.0
  0
LINE
  5
31B
330
302
100
AcDbEntity
  8
PROFILE
 62
     0
370
    -2
100
AcDbLine
 10
209.7824250603377
 20
204.1340341006183
 30
0.0
 11
208.4875370142361
 21
203.0847282701567
 31
0.0
  0
MTEXT
  5
31C
330
302
100
AcDbEntity
  8
PROFILE
 62
     7
100
AcDbMText
 10
212.5016065199038
 20
205.8041524438136
 30
0.0
 40
1.666666666666666
 41
0.0
 71
     5
 72
     1
  1
\A1;\U+220570
 73
     1
 44
1.0
  0
SOLID
  5
31D
330
302
100
AcDbEntity
  8
PROFILE
 62
     0
100
AcDbTrace
 10
208.3126527091592
 20
203.3005429445069
 30
0.0
 11
208.6624213193131
 21
202.8689135958064
 31
0.0
 12
207.1926489681345
 22
202.035422439695
 32
0.0
 13
207.1926489681345
 23
202.035422439695
 33
0.0
  0
LINE
  5
31E
330
302
100
AcDbEntity
  8
PROFILE
 62
     0
370
    -2
100
AcDbLine
 10
179.3333333333334
 20
179.9999999999999
 30
0.0
 11
180.6666666666668
 21
179.9999999999999
 31
0.0
  0
LINE
  5
31F
330
302
100
AcDbEntity
  8
PROFILE
 62
     0
370
    -2
100
AcDbLine
 10
180.0000000000001
 20
179.3333333333332
 30
0.0
 11
180.0000000000001
 21
180.6666666666665
 31
0.0
  0
POINT
  5
320
330
302
100
AcDbEntity
  8
Defpoints
 62
     0
100
AcDbPoint
 10
207.1926489681345
 20
202.035422439695
 30
0.0
  0
POINT
  5
321
330
302
100
AcDbEntity
  8
Defpoints
 62
     0
100
AcDbPoint
 10
152.8073510318656
 20
157.9645775603048
 30
0.0
  0
ENDBLK
  5
30C
330
302
100
AcDbEntity
  8
0
 62
     6
100
AcDbBlockEnd
  0
BLOCK
  5
318
330
30D
100
AcDbEntity
  8
0
 62
     6
100
AcDbBlockBegin
  2
*D29
 70
     1
 10
0.0
 20
0.0
 30
0.0
  3
*D29
  1

  0
LINE
  5
322
330
30D
100
AcDbEntity
  8
PROFILE
 62
     0
370
    -2
100
AcDbLine
 10
201.9987373415291
 20
205.4154040081958
 30
0.0
 11
201.9987373415291
 21
214.1666666666666
 31
0.0
  0
LINE
  5
323
330
30D
100
AcDbEntity
  8
PROFILE
 62
     0
370
    -2
100
AcDbLine
 10
207.4987373415292
 20
205.4154040081958
 30
0.0
 11
207.4987373415292
 21
214.1666666666666
 31
0.0
  0
LINE
  5
324
330
30D
100
AcDbEntity
  8
PROFILE
 62
     0
370
    -2
100
AcDbLine
 10
201.3320706748625
 20
213.5
 30
0.0
 11
207.4987373415292
 21
213.5
 31
0.0
  0
LINE
  5
325
330
30D
100
AcDbEntity
  8
PROFILE
 62
     0
370
    -2
100
AcDbLine
 10
207.4987373415292
 20
213.5
 30
0.0
 11
214.4622481896554
 21
213.5
 31
0.0
  0
INSERT
  5
326
330
30D
100
AcDbEntity
  8
PROFILE
 62
     0
370
    -2
100
AcDbBlockReference
  2
_ArchTick
 10
201.9987373415291
 20
213.5
 30
0.0
 50
180.0
  0
INSERT
  5
327
330
30D
100
AcDbEntity
  8
PROFILE
 62
     0
370
    -2
100
AcDbBlockReference
  2
_ArchTick
 10
207.4987373415292
 20
213.5
 30
0.0
  0
MTEXT
  5
328
330
30D
100
AcDbEntity
  8
PROFILE
 62
     7
100
AcDbMText
 10
211.4804927655923
 20
215.1701183431952
 30
0.0
 40
1.666666666666666
 41
0.0
 71
     5
 72
     1
  1
\A1;%%c5.5
 73
     1
 44
1.0
  0
POINT
  5
329
330
30D
100
AcDbEntity
  8
Defpoints
 62
     0
100
AcDbPoint
 10
201.9987373415291
 20
204.7487373415291
 30
0.0
  0
POINT
  5
32A
330
30D
100
AcDbEntity
  8
Defpoints
 62
     0
100
AcDbPoint
 10
207.4987373415292
 20
204.7487373415291
 30
0.0
  0
POINT
  5
32B
330
30D
100
AcDbEntity
  8
Defpoints
 62
     0
100
AcDbPoint
 10
207.4987373415292
 20
213.5
 30
0.0
  0
ENDBLK
  5
319
330
30D
100
AcDbEntity
  8
0
 62
     6
100
AcDbBlockEnd
  0
BLOCK
  5
33D
330
333
100
AcDbEntity
  8
0
 62
     6
100
AcDbBlockBegin
  2
*D30
 70
     1
 10
0.0
 20
0.0
 30
0.0
  3
*D30
  1

  0
LINE
  5
33F
330
333
100
AcDbEntity
  8
PROFILE
 62
     0
370
    -2
100
AcDbLine
 10
309.9999999999998
 20
155.3333333333331
 30
0.0
 11
309.9999999999998
 21
133.3333333333333
 31
0.0
  0
LINE
  5
340
330
333
100
AcDbEntity
  8
PROFILE
 62
     0
370
    -2
100
AcDbLine
 10
315.0000000000001
 20
149.833333333333
 30
0.0
 11
315.0000000000001
 21
133.3333333333333
 31
0.0
  0
LINE
  5
341
330
333
100
AcDbEntity
  8
PROFILE
 62
     0
370
    -2
100
AcDbLine
 10
309.3333333333331
 20
133.9999999999999
 30
0.0
 11
315.6666666666668
 21
133.9999999999999
 31
0.0
  0
INSERT
  5
342
330
333
100
AcDbEntity
  8
PROFILE
 62
     0
370
    -2
100
AcDbBlockReference
  2
_ArchTick
 10
309.9999999999998
 20
133.9999999999999
 30
0.0
 41
1.0
 42
1.0
 43
1.0
 50
180.0
  0
INSERT
  5
343
330
333
100
AcDbEntity
  8
PROFILE
 62
     0
370
    -2
100
AcDbBlockReference
  2
_ArchTick
 10
315.0000000000001
 20
133.9999999999999
 30
0.0
 41
1.0
 42
1.0
 43
1.0
  0
MTEXT
  5
344
330
333
100
AcDbEntity
  8
PROFILE
 62
     7
100
AcDbMText
 10
312.4999999999999
 20
135.5320512820512
 30
0.0
 40
1.666666666666667
 41
0.0
 71
     5
 72
     1
  1
5
 73
     1
 44
1.0
  0
POINT
  5
345
330
333
100
AcDbEntity
  8
Defpoints
 62
     0
100
AcDbPoint
 10
309.9999999999998
 20
155.9999999999998
 30
0.0
  0
POINT
  5
346
330
333
100
AcDbEntity
  8
Defpoints
 62
     0
100
AcDbPoint
 10
315.0000000000001
 20
150.4999999999997
 30
0.0
  0
POINT
  5
347
330
333
100
AcDbEntity
  8
Defpoints
 62
     0
100
AcDbPoint
 10
315.0000000000001
 20
133.9999999999999
 30
0.0
  0
ENDBLK
  5
33E
330
333
100
AcDbEntity
  8
0
 62
     6
100
AcDbBlockEnd
  0
ENDSEC
  0
SECTION
  2
ENTITIES
  0
CIRCLE
  5
34
330
2
100
AcDbEntity
  8
PROFILE
100
AcDbCircle
 10
179.9999999999999
 20
360.0
 30
0.0
 40
25.0
  0
LINE
  5
36
330
2
100
AcDbEntity
  8
PROFILE
  6
CENTER
 62
     1
100
AcDbLine
 10
179.9999999999999
 20
393.0
 30
0.0
 11
179.9999999999999
 21
327.0
 31
0.0
  0
LINE
  5
38
330
2
100
AcDbEntity
  8
PROFILE
100
AcDbLine
 10
209.9999999999999
 20
386.457513110646
 30
0.0
 11
209.9999999999999
 21
333.5424868893541
 31
0.0
  0
LINE
  5
39
330
2
100
AcDbEntity
  8
PROFILE
100
AcDbLine
 10
149.9999999999999
 20
386.4575131106459
 30
0.0
 11
149.9999999999999
 21
333.5424868893541
 31
0.0
  0
LINE
  5
3A
330
2
100
AcDbEntity
  8
PROFILE
  6
CENTER
 62
     1
100
AcDbLine
 10
152.7414338803285
 20
332.7414338803287
 30
0.0
 11
207.2585661196713
 21
387.2585661196714
 31
0.0
  0
LINE
  5
3B
330
2
100
AcDbEntity
  8
PROFILE
  6
CENTER
 62
     1
100
AcDbLine
 10
207.2585661196713
 20
332.7414338803287
 30
0.0
 11
152.7414338803285
 21
387.2585661196714
 31
0.0
  0
CIRCLE
  5
3C
330
2
100
AcDbEntity
  8
PROFILE
100
AcDbCircle
 10
180.0000000000022
 20
359.9999999999976
 30
0.0
 40
14.99999999999789
  0
LINE
  5
3D
330
2
100
AcDbEntity
  8
PROFILE
  6
CENTER
 62
     1
100
AcDbLine
 10
146.9999999999999
 20
360.0
 30
0.0
 11
212.9999999999999
 21
360.0
 31
0.0
  0
LINE
  5
3E
330
2
100
AcDbEntity
  8
PROFILE
100
AcDbLine
 10
153.542486889354
 20
330.0
 30
0.0
 11
206.4575131106458
 21
330.0
 31
0.0
  0
CIRCLE
  5
3F
330
2
100
AcDbEntity
  8
PROFILE
100
AcDbCircle
 10
155.2512626584705
 20
335.2512626584706
 30
0.0
 40
2.75
  0
ARC
  5
40
330
2
100
AcDbEntity
  8
PROFILE
  6
CENTER
 62
     1
100
AcDbCircle
 10
179.9999999999996
 20
359.9999999999998
 30
0.0
 40
35.0
100
AcDbArc
 50
217.9065738046547
 51
232.0934261953453
  0
ARC
  5
41
330
2
100
AcDbEntity
  8
PROFILE
100
AcDbCircle
 10
179.9999999999996
 20
359.9999999999998
 30
0.0
 40
40.0
100
AcDbArc
 50
221.4096221092709
 51
228.5903778907291
  0
ARC
  5
42
330
2
100
AcDbEntity
  8
PROFILE
  6
CENTER
 62
     1
100
AcDbCircle
 10
179.9999999999999
 20
359.9999999999998
 30
0.0
 40
35.0
100
AcDbArc
 50
307.9065738046546
 51
322.0934261953453
  0
ARC
  5
43
330
2
100
AcDbEntity
  8
PROFILE
100
AcDbCircle
 10
179.9999999999999
 20
359.9999999999998
 30
0.0
 40
40.0
100
AcDbArc
 50
311.4096221092709
 51
318.5903778907292
  0
CIRCLE
  5
44
330
2
100
AcDbEntity
  8
PROFILE
100
AcDbCircle
 10
204.7487373415289
 20
335.2512626584706
 30
0.0
 40
2.75
  0
LINE
  5
45
330
2
100
AcDbEntity
  8
PROFILE
100
AcDbLine
 10
189.9999999999995
 20
362.5
 30
0.0
 11
189.9999999999995
 21
357.4999999999998
 31
0.0
  0
LINE
  5
46
330
2
100
AcDbEntity
  8
PROFILE
  6
DASHED
 62
     4
100
AcDbLine
 10
184.9999999999999
 20
357.5
 30
0.0
 11
185.0
 21
362.5
 31
0.0
  0
CIRCLE
  5
48
330
2
100
AcDbEntity
  8
PROFILE
 62
     1
100
AcDbCircle
 10
179.9999999999999
 20
360.0
 30
0.0
 40
3.850000000000533
  0
CIRCLE
  5
49
330
2
100
AcDbEntity
  8
PROFILE
100
AcDbCircle
 10
179.9999999999999
 20
360.0
 30
0.0
 40
2.999999999999771
  0
ARC
  5
4A
330
2
100
AcDbEntity
  8
PROFILE
100
AcDbCircle
 10
180.0000000000022
 20
359.9999999999976
 30
0.0
 40
8.50000000000125
100
AcDbArc
 50
17.1046351766581
 51
342.8953648233745
  0
CIRCLE
  5
4B
330
2
100
AcDbEntity
  8
PROFILE
 62
     1
100
AcDbCircle
 10
179.9999999999999
 20
360.0
 30
0.0
 40
2.5
  0
CIRCLE
  5
4C
330
2
100
AcDbEntity
  8
PROFILE
100
AcDbCircle
 10
179.9999999999999
 20
360.0
 30
0.0
 40
2.049999999999998
  0
CIRCLE
  5
4D
330
2
100
AcDbEntity
  8
PROFILE
100
AcDbCircle
 10
179.9999999999999
 20
360.0
 30
0.0
 40
8.0
  0
LINE
  5
4E
330
2
100
AcDbEntity
  8
PROFILE
  6
DASHED
 62
     4
100
AcDbLine
 10
184.9999999999999
 20
357.5
 30
0.0
 11
187.5993420767852
 21
357.5
 31
0.0
  0
LINE
  5
4F
330
2
100
AcDbEntity
  8
PROFILE
100
AcDbLine
 10
189.9999999999995
 20
357.4999999999998
 30
0.0
 11
187.5993420767852
 21
357.5
 31
0.0
  0
LINE
  5
50
330
2
100
AcDbEntity
  8
PROFILE
  6
DASHED
 62
     4
100
AcDbLine
 10
185.0
 20
362.5
 30
0.0
 11
187.5993420767852
 21
362.5
 31
0.0
  0
LINE
  5
51
330
2
100
AcDbEntity
  8
PROFILE
100
AcDbLine
 10
187.5993420767852
 20
362.5
 30
0.0
 11
189.9999999999995
 21
362.5
 31
0.0
  0
CIRCLE
  5
52
330
2
100
AcDbEntity
  8
PROFILE
100
AcDbCircle
 10
155.2512626584704
 20
384.7487373415291
 30
0.0
 40
2.75
  0
ARC
  5
53
330
2
100
AcDbEntity
  8
PROFILE
  6
CENTER
 62
     1
100
AcDbCircle
 10
179.9999999999995
 20
360.0
 30
0.0
 40
35.0
100
AcDbArc
 50
127.9065738046547
 51
142.0934261953453
  0
ARC
  5
54
330
2
100
AcDbEntity
  8
PROFILE
100
AcDbCircle
 10
179.9999999999995
 20
360.0
 30
0.0
 40
40.0
100
AcDbArc
 50
131.4096221092709
 51
138.5903778907291
  0
ARC
  5
55
330
2
100
AcDbEntity
  8
PROFILE
  6
CENTER
 62
     1
100
AcDbCircle
 10
179.9999999999999
 20
360.0
 30
0.0
 40
35.0
100
AcDbArc
 50
37.90657380465471
 51
52.09342619534537
  0
CIRCLE
  5
56
330
2
100
AcDbEntity
  8
PROFILE
100
AcDbCircle
 10
204.748737341529
 20
384.7487373415291
 30
0.0
 40
2.75
  0
ARC
  5
57
330
2
100
AcDbEntity
  8
PROFILE
100
AcDbCircle
 10
179.9999999999999
 20
360.0
 30
0.0
 40
40.0
100
AcDbArc
 50
41.4096221092709
 51
48.59037789072917
  0
LINE
  5
58
330
2
100
AcDbEntity
  8
PROFILE
  6
CENTER
 62
     1
100
AcDbLine
 10
274.9999999999996
 20
179.9999999999998
 30
0.0
 11
422.4999999999996
 21
179.9999999999998
 31
0.0
  0
LINE
  5
59
330
2
100
AcDbEntity
  8
PROFILE
100
AcDbLine
 10
386.5000000000009
 20
153.5424868893539
 30
0.0
 11
419.5
 21
153.5424868893538
 31
0.0
  0
LINE
  5
5A
330
2
100
AcDbEntity
  8
PROFILE
100
AcDbLine
 10
386.5000000000009
 20
206.4575131106458
 30
0.0
 11
419.5
 21
206.4575131106458
 31
0.0
  0
LINE
  5
5B
330
2
100
AcDbEntity
  8
PROFILE
100
AcDbLine
 10
418.9999999999987
 20
209.9999999999997
 30
0.0
 11
340.4336464088828
 21
209.9999999999998
 31
0.0
  0
LINE
  5
5C
330
2
100
AcDbEntity
  8
PROFILE
100
AcDbLine
 10
418.9999999999988
 20
149.9999999999997
 30
0.0
 11
340.4336464092547
 21
149.9999999999998
 31
0.0
  0
LINE
  5
5D
330
2
100
AcDbEntity
  8
PROFILE
100
AcDbLine
 10
338.9999999999998
 20
207.9999999999997
 30
0.0
 11
333.9999999999998
 21
207.9999999999997
 31
0.0
  0
LINE
  5
5E
330
2
100
AcDbEntity
  8
PROFILE
100
AcDbLine
 10
333.9999999999998
 20
151.9999999999997
 30
0.0
 11
338.9999999999998
 21
151.9999999999997
 31
0.0
  0
LINE
  5
5F
330
2
100
AcDbEntity
  8
PROFILE
100
AcDbLine
 10
308.9999999999987
 20
188.2499999999998
 30
0.0
 11
308.9999999999997
 21
171.7499999999972
 31
0.0
  0
LINE
  5
60
330
2
100
AcDbEntity
  8
PROFILE
100
AcDbLine
 10
279.9999999999998
 20
186.9999999999998
 30
0.0
 11
279.9999999999997
 21
172.9999999999997
 31
0.0
  0
LINE
  5
61
330
2
100
AcDbEntity
  8
PROFILE
100
AcDbLine
 10
315.0
 20
150.4999999999997
 30
0.0
 11
314.9999999999997
 21
209.4999999999998
 31
0.0
  0
LINE
  5
62
330
2
100
AcDbEntity
  8
PROFILE
100
AcDbLine
 10
322.9999999999991
 20
150.4999999999997
 30
0.0
 11
322.9999999999997
 21
209.4999999999998
 31
0.0
  0
LINE
  5
63
330
2
100
AcDbEntity
  8
PROFILE
100
AcDbLine
 10
333.9999999999998
 20
151.9999999999997
 30
0.0
 11
333.9999999999998
 21
207.9999999999996
 31
0.0
  0
LINE
  5
64
330
2
100
AcDbEntity
  8
PROFILE
100
AcDbLine
 10
328.9999999999998
 20
154.9999999999998
 30
0.0
 11
328.9999999999998
 21
204.9999999999998
 31
0.0
  0
LINE
  5
65
330
2
100
AcDbEntity
  8
PROFILE
100
AcDbLine
 10
309.9999999999998
 20
155.9999999999998
 30
0.0
 11
309.9999999999998
 21
203.9999999999998
 31
0.0
  0
LINE
  5
66
330
2
100
AcDbEntity
  8
PROFILE
100
AcDbLine
 10
280.9999999999996
 20
171.9999999999997
 30
0.0
 11
308.9999999999995
 21
171.9999999999997
 31
0.0
  0
LINE
  5
67
330
2
100
AcDbEntity
  8
PROFILE
100
AcDbLine
 10
285.4999999999996
 20
182.4999999999998
 30
0.0
 11
300.4999999999997
 21
182.4999999999998
 31
0.0
  0
LINE
  5
68
330
2
100
AcDbEntity
  8
PROFILE
100
AcDbLine
 10
285.4999999999996
 20
177.4999999999996
 30
0.0
 11
300.4999999999997
 21
177.4999999999996
 31
0.0
  0
LINE
  5
69
330
2
100
AcDbEntity
  8
PROFILE
100
AcDbLine
 10
279.9999999999997
 20
172.9999999999997
 30
0.0
 11
280.9999999999996
 21
171.9999999999997
 31
0.0
  0
ARC
  5
6A
330
2
100
AcDbEntity
  8
PROFILE
100
AcDbCircle
 10
285.4999999999996
 20
179.9999999999998
 30
0.0
 40
2.500000000000055
100
AcDbArc
 50
90.0
 51
270.0
  0
ARC
  5
6B
330
2
100
AcDbEntity
  8
PROFILE
100
AcDbCircle
 10
300.4999999999997
 20
179.9999999999998
 30
0.0
 40
2.500000000000055
100
AcDbArc
 50
270.0
 51
90.0
  0
LINE
  5
6C
330
2
100
AcDbEntity
  8
PROFILE
  6
DASHED
 62
     4
100
AcDbLine
 10
314.9999999999995
 20
157.7512626584705
 30
0.0
 11
322.9999999999995
 21
157.7512626584705
 31
0.0
  0
LINE
  5
6D
330
2
100
AcDbEntity
  8
PROFILE
  6
DASHED
 62
     4
100
AcDbLine
 10
314.9999999999995
 20
152.7512626584705
 30
0.0
 11
322.9999999999995
 21
152.7512626584705
 31
0.0
  0
LINE
  5
6E
330
2
100
AcDbEntity
  8
PROFILE
100
AcDbLine
 10
314.9999999999997
 20
153.5424868893539
 30
0.0
 11
322.9999999999997
 21
153.5424868893539
 31
0.0
  0
LINE
  5
6F
330
2
100
AcDbEntity
  8
PROFILE
100
AcDbLine
 10
315.5
 20
149.9999999999997
 30
0.0
 11
322.4999999999992
 21
149.9999999999998
 31
0.0
  0
LINE
  5
70
330
2
100
AcDbEntity
  8
PROFILE
100
AcDbLine
 10
315.5
 20
149.9999999999997
 30
0.0
 11
315.0
 21
150.4999999999997
 31
0.0
  0
LINE
  5
71
330
2
100
AcDbEntity
  8
PROFILE
100
AcDbLine
 10
310.9999999999998
 20
154.9999999999998
 30
0.0
 11
314.9999999999999
 21
154.9999999999998
 31
0.0
  0
LINE
  5
72
330
2
100
AcDbEntity
  8
PROFILE
100
AcDbLine
 10
309.9999999999998
 20
155.9999999999998
 30
0.0
 11
310.9999999999998
 21
154.9999999999998
 31
0.0
  0
LINE
  5
73
330
2
100
AcDbEntity
  8
PROFILE
100
AcDbLine
 10
328.9999999999998
 20
154.9999999999998
 30
0.0
 11
333.9999999999998
 21
151.9999999999997
 31
0.0
  0
LINE
  5
74
330
2
100
AcDbEntity
  8
PROFILE
100
AcDbLine
 10
322.9999999999991
 20
150.4999999999997
 30
0.0
 11
322.4999999999992
 21
149.9999999999998
 31
0.0
  0
LINE
  5
75
330
2
100
AcDbEntity
  8
PROFILE
100
AcDbLine
 10
322.9999999999998
 20
154.9999999999998
 30
0.0
 11
328.9999999999998
 21
154.9999999999998
 31
0.0
  0
LINE
  5
76
330
2
100
AcDbEntity
  8
PROFILE
100
AcDbLine
 10
309.0877501000791
 20
171.499999999999
 30
0.0
 11
309.9999999999994
 21
171.4999999999991
 31
0.0
  0
LINE
  5
77
330
2
100
AcDbEntity
  8
PROFILE
100
AcDbLine
 10
308.9999999999987
 20
171.7499999999998
 30
0.0
 11
309.0877501000791
 21
171.499999999999
 31
0.0
  0
LINE
  5
78
330
2
100
AcDbEntity
  8
PROFILE
100
AcDbLine
 10
280.9999999999998
 20
187.9999999999998
 30
0.0
 11
308.9999999999995
 21
187.9999999999997
 31
0.0
  0
LINE
  5
79
330
2
100
AcDbEntity
  8
PROFILE
100
AcDbLine
 10
280.9999999999998
 20
187.9999999999998
 30
0.0
 11
279.9999999999998
 21
186.9999999999998
 31
0.0
  0
LINE
  5
7A
330
2
100
AcDbEntity
  8
PROFILE
  6
DASHED
 62
     4
100
AcDbLine
 10
314.9999999999995
 20
202.248737341529
 30
0.0
 11
322.9999999999995
 21
202.248737341529
 31
0.0
  0
LINE
  5
7B
330
2
100
AcDbEntity
  8
PROFILE
100
AcDbLine
 10
309.0877501000791
 20
188.5000000000006
 30
0.0
 11
309.9999999999994
 21
188.5000000000004
 31
0.0
  0
LINE
  5
7C
330
2
100
AcDbEntity
  8
PROFILE
100
AcDbLine
 10
308.9999999999987
 20
188.2499999999998
 30
0.0
 11
309.0877501000791
 21
188.5000000000006
 31
0.0
  0
LINE
  5
7D
330
2
100
AcDbEntity
  8
PROFILE
100
AcDbLine
 10
315.4999999999997
 20
209.9999999999998
 30
0.0
 11
322.4999999999996
 21
209.9999999999998
 31
0.0
  0
LINE
  5
7E
330
2
100
AcDbEntity
  8
PROFILE
100
AcDbLine
 10
314.9999999999997
 20
206.4575131106457
 30
0.0
 11
322.9999999999997
 21
206.4575131106457
 31
0.0
  0
LINE
  5
7F
330
2
100
AcDbEntity
  8
PROFILE
  6
DASHED
 62
     4
100
AcDbLine
 10
314.9999999999995
 20
207.248737341529
 30
0.0
 11
322.9999999999995
 21
207.248737341529
 31
0.0
  0
LINE
  5
80
330
2
100
AcDbEntity
  8
PROFILE
100
AcDbLine
 10
314.9999999999999
 20
204.9999999999998
 30
0.0
 11
310.9999999999998
 21
204.9999999999998
 31
0.0
  0
LINE
  5
81
330
2
100
AcDbEntity
  8
PROFILE
100
AcDbLine
 10
310.9999999999998
 20
204.9999999999998
 30
0.0
 11
309.9999999999998
 21
203.9999999999998
 31
0.0
  0
LINE
  5
82
330
2
100
AcDbEntity
  8
PROFILE
100
AcDbLine
 10
315.4999999999997
 20
209.9999999999998
 30
0.0
 11
314.9999999999997
 21
209.4999999999998
 31
0.0
  0
LINE
  5
83
330
2
100
AcDbEntity
  8
PROFILE
100
AcDbLine
 10
328.9999999999998
 20
204.9999999999998
 30
0.0
 11
322.9999999999998
 21
204.9999999999998
 31
0.0
  0
LINE
  5
84
330
2
100
AcDbEntity
  8
PROFILE
100
AcDbLine
 10
322.4999999999996
 20
209.9999999999998
 30
0.0
 11
322.9999999999997
 21
209.4999999999998
 31
0.0
  0
LINE
  5
85
330
2
100
AcDbEntity
  8
PROFILE
100
AcDbLine
 10
333.9999999999998
 20
207.9999999999997
 30
0.0
 11
328.9999999999998
 21
204.9999999999998
 31
0.0
  0
LINE
  5
86
330
2
100
AcDbEntity
  8
PROFILE
100
AcDbLine
 10
373.4999999999998
 20
209.9999999999998
 30
0.0
 11
373.4999999999896
 21
149.9999999999998
 31
0.0
  0
LWPOLYLINE
  5
87
330
2
100
AcDbEntity
  8
PROFILE
100
AcDbPolyline
 90
       13
 70
   128
 43
0.0
 10
343.9999999999997
 20
198.0277563773197
 10
342.9775778371813
 20
195.0616510552811
 10
342.0926819971971
 20
192.0502917451035
 10
341.3717402909123
 20
188.9983185508362
 10
340.8285854956444
 20
185.8070972685493
 10
340.5101391945331
 20
182.5819953002721
 10
340.4336464088828
 20
179.3470460760371
 10
340.5812956988991
 20
176.4288809824924
 10
340.9235988028791
 20
173.523518860418
 10
341.44569723127
 20
170.6476593610045
 10
342.1552116474027
 20
167.7166635289183
 10
343.0144574229124
 20
164.8235660256608
 10
343.9999999999997
 20
161.9722436226798
  0
LINE
  5
88
330
2
100
AcDbEntity
  8
PROFILE
100
AcDbLine
 10
338.9999999999998
 20
151.9999999999997
 30
0.0
 11
338.9999999999998
 21
207.9999999999996
 31
0.0
  0
LINE
  5
89
330
2
100
AcDbEntity
  8
PROFILE
100
AcDbLine
 10
353.9999999999993
 20
150.4999999999997
 30
0.0
 11
353.9999999999996
 21
204.7487373415287
 31
0.0
  0
LINE
  5
8A
330
2
100
AcDbEntity
  8
PROFILE
100
AcDbLine
 10
378.5000000000009
 20
161.9722436221248
 30
0.0
 11
343.9999999999917
 21
161.9722436221248
 31
0.0
  0
LINE
  5
8B
330
2
100
AcDbEntity
  8
PROFILE
100
AcDbLine
 10
373.4999999999898
 20
151.1038519277169
 30
0.0
 11
343.9999999999997
 21
151.1038519277169
 31
0.0
  0
LINE
  5
8C
330
2
100
AcDbEntity
  8
PROFILE
100
AcDbLine
 10
343.9999999999997
 20
160.2512626584706
 30
0.0
 11
373.4999999999914
 21
160.2512626584704
 31
0.0
  0
LWPOLYLINE
  5
8D
330
2
100
AcDbEntity
  8
PROFILE
100
AcDbPolyline
 90
        4
 70
   128
 43
0.0
 10
343.9999999999997
 20
151.1038519277169
 10
343.0010959281801
 20
152.8145170965717
 10
342.0183373143485
 20
154.5347035214411
 10
341.616056994352
 20
155.2512626584706
  0
LINE
  5
8E
330
2
100
AcDbEntity
  8
PROFILE
100
AcDbLine
 10
338.9999999999998
 20
151.9999999999997
 30
0.0
 11
340.4285714285712
 21
149.9999999999998
 31
0.0
  0
LINE
  5
8F
330
2
100
AcDbEntity
  8
PROFILE
100
AcDbLine
 10
343.9999999999998
 20
149.9999999999998
 30
0.0
 11
343.9999999999997
 21
151.1038519277169
 31
0.0
  0
LINE
  5
90
330
2
100
AcDbEntity
  8
PROFILE
100
AcDbLine
 10
341.616056994352
 20
160.2512626584706
 30
0.0
 11
343.9999999999997
 21
160.2512626584706
 31
0.0
  0
LWPOLYLINE
  5
91
330
2
100
AcDbEntity
  8
PROFILE
100
AcDbPolyline
 90
       12
 70
   128
 43
0.0
 10
341.616056994352
 20
155.2512626584706
 10
341.2246569966212
 20
156.0033060424797
 10
340.8908659074902
 20
156.7634966581479
 10
340.6670173867975
 20
157.4021135357196
 10
340.5111565736668
 20
158.0154893189726
 10
340.4354695788605
 20
158.5862685046785
 10
340.445487818926
 20
159.0907640621606
 10
340.5289977761267
 20
159.4726704926628
 10
340.6761747577817
 20
159.7794570052256
 10
340.8892358149524
 20
160.0154848136756
 10
341.1519281536331
 20
160.1685978585078
 10
341.616056994352
 20
160.2512626584706
  0
LINE
  5
92
330
2
100
AcDbEntity
  8
PROFILE
100
AcDbLine
 10
343.9999999999997
 20
160.2512626584706
 30
0.0
 11
343.9999999999997
 21
161.9722436226798
 31
0.0
  0
LINE
  5
93
330
2
100
AcDbEntity
  8
PROFILE
100
AcDbLine
 10
353.9999999999993
 20
150.4999999999997
 30
0.0
 11
353.4999999999993
 21
149.9999999999998
 31
0.0
  0
LINE
  5
94
330
2
100
AcDbEntity
  8
PROFILE
100
AcDbLine
 10
378.5000000000009
 20
161.9722436226798
 30
0.0
 11
386.5000000000007
 21
153.5424868893539
 31
0.0
  0
LINE
  5
95
330
2
100
AcDbEntity
  8
PROFILE
100
AcDbLine
 10
378.5000000000009
 20
161.9722436226797
 30
0.0
 11
378.5000000000007
 21
149.9999999999999
 31
0.0
  0
LINE
  5
96
330
2
100
AcDbEntity
  8
PROFILE
100
AcDbLine
 10
386.5000000000009
 20
153.5424868893539
 30
0.0
 11
386.5000000000007
 21
149.9999999999999
 31
0.0
  0
LINE
  5
97
330
2
100
AcDbEntity
  8
PROFILE
100
AcDbLine
 10
343.9999999999997
 20
208.8961480722824
 30
0.0
 11
373.4999999999997
 21
208.8961480722824
 31
0.0
  0
LINE
  5
98
330
2
100
AcDbEntity
  8
PROFILE
100
AcDbLine
 10
378.5000000005275
 20
198.0277563778749
 30
0.0
 11
343.9999999999917
 21
198.0277563778748
 31
0.0
  0
LINE
  5
99
330
2
100
AcDbEntity
  8
PROFILE
100
AcDbLine
 10
373.4999999999982
 20
199.7487373415286
 30
0.0
 11
343.9999999999997
 21
199.7487373415286
 31
0.0
  0
LWPOLYLINE
  5
9A
330
2
100
AcDbEntity
  8
PROFILE
100
AcDbPolyline
 90
       12
 70
   128
 43
0.0
 10
341.616056994352
 20
199.7487373415287
 10
341.2246569966212
 20
199.8058843881968
 10
340.8908659074902
 20
199.9829060047922
 10
340.6670173867975
 20
200.2354197900225
 10
340.5111565736668
 20
200.5823178992054
 10
340.4354695788605
 20
201.0243125978962
 10
340.445487818926
 20
201.5458903312795
 10
340.5289977761267
 20
202.0698792123996
 10
340.6761747577817
 20
202.6284883094536
 10
340.8892358149524
 20
203.2320850520262
 10
341.1519281536331
 20
203.8433012419198
 10
341.616056994352
 20
204.7487373415287
  0
LINE
  5
9B
330
2
100
AcDbEntity
  8
PROFILE
100
AcDbLine
 10
343.9999999999997
 20
199.7487373415286
 30
0.0
 11
341.616056994352
 21
199.7487373415287
 31
0.0
  0
LINE
  5
9C
330
2
100
AcDbEntity
  8
PROFILE
100
AcDbLine
 10
343.9999999999997
 20
198.0277563773197
 30
0.0
 11
343.9999999999997
 21
199.7487373415286
 31
0.0
  0
LWPOLYLINE
  5
9D
330
2
100
AcDbEntity
  8
PROFILE
100
AcDbPolyline
 90
        3
 70
   128
 43
0.0
 10
341.616056994352
 20
204.7487373415287
 10
342.7957332010803
 20
206.8293073676198
 10
343.9999999999997
 20
208.8961480722824
  0
LINE
  5
9E
330
2
100
AcDbEntity
  8
PROFILE
100
AcDbLine
 10
340.4285714285712
 20
209.9999999999998
 30
0.0
 11
338.9999999999998
 21
207.9999999999997
 31
0.0
  0
LINE
  5
9F
330
2
100
AcDbEntity
  8
PROFILE
100
AcDbLine
 10
343.9999999999997
 20
208.8961480722824
 30
0.0
 11
343.9999999999998
 21
209.9999999999998
 31
0.0
  0
LINE
  5
A0
330
2
100
AcDbEntity
  8
PROFILE
100
AcDbLine
 10
353.4999999999997
 20
209.9999999999998
 30
0.0
 11
353.9999999999996
 21
209.4999999999998
 31
0.0
  0
LINE
  5
A1
330
2
100
AcDbEntity
  8
PROFILE
100
AcDbLine
 10
353.9999999999996
 20
204.7487373415287
 30
0.0
 11
353.9999999999996
 21
209.4999999999998
 31
0.0
  0
LINE
  5
A2
330
2
100
AcDbEntity
  8
PROFILE
100
AcDbLine
 10
378.5000000000009
 20
198.0277563773198
 30
0.0
 11
386.5000000000007
 21
206.4575131106458
 31
0.0
  0
LINE
  5
A3
330
2
100
AcDbEntity
  8
PROFILE
100
AcDbLine
 10
378.5000000000009
 20
198.0277563773199
 30
0.0
 11
378.5000000000007
 21
209.9999999999998
 31
0.0
  0
LINE
  5
A4
330
2
100
AcDbEntity
  8
PROFILE
100
AcDbLine
 10
386.5000000000009
 20
206.4575131106458
 30
0.0
 11
386.5000000000007
 21
209.9999999999998
 31
0.0
  0
LINE
  5
A5
330
2
100
AcDbEntity
  8
PROFILE
100
AcDbLine
 10
419.4999999999988
 20
150.4999999999997
 30
0.0
 11
419.4999999999986
 21
209.4999999999997
 31
0.0
  0
LINE
  5
A6
330
2
100
AcDbEntity
  8
PROFILE
100
AcDbLine
 10
419.4999999999988
 20
150.4999999999997
 30
0.0
 11
418.9999999999988
 21
149.9999999999997
 31
0.0
  0
CIRCLE
  5
A7
330
2
100
AcDbEntity
  8
PROFILE
100
AcDbCircle
 10
406.4999999999987
 20
189.9999999999996
 30
0.0
 40
4.0
  0
LINE
  5
A8
330
2
100
AcDbEntity
  8
PROFILE
100
AcDbLine
 10
418.9999999999987
 20
209.9999999999997
 30
0.0
 11
419.4999999999986
 21
209.4999999999997
 31
0.0
  0
LINE
  5
A9
330
2
100
AcDbEntity
  8
PROFILE
100
AcDbLine
 10
367.0000000000009
 20
386.4575131106458
 30
0.0
 11
400.0
 21
386.4575131106458
 31
0.0
  0
LINE
  5
AA
330
2
100
AcDbEntity
  8
PROFILE
100
AcDbLine
 10
367.0000000000009
 20
333.5424868893539
 30
0.0
 11
400.0
 21
333.5424868893538
 31
0.0
  0
LINE
  5
AB
330
2
100
AcDbEntity
  8
PROFILE
100
AcDbLine
 10
399.4999999999988
 20
329.9999999999997
 30
0.0
 11
340.4336464092546
 21
329.9999999999998
 31
0.0
  0
LINE
  5
AC
330
2
100
AcDbEntity
  8
PROFILE
  6
CENTER
 62
     1
100
AcDbLine
 10
274.9999999999996
 20
359.9999999999998
 30
0.0
 11
402.9999999999995
 21
359.9999999999998
 31
0.0
  0
LWPOLYLINE
  5
AD
330
2
100
AcDbEntity
  8
PROFILE
100
AcDbPolyline
 90
       13
 70
   128
 43
0.0
 10
343.9999999999995
 20
378.0277563773197
 10
342.9775778371811
 20
375.0616510552812
 10
342.092681997197
 20
372.0502917451036
 10
341.3717402909122
 20
368.9983185508364
 10
340.8285854956442
 20
365.8070972685493
 10
340.510139194533
 20
362.5819953002721
 10
340.4336464088828
 20
359.3470460760372
 10
340.581295698899
 20
356.4288809824924
 10
340.9235988028789
 20
353.523518860418
 10
341.4456972312698
 20
350.6476593610046
 10
342.155211647403
 20
347.6416635289183
 10
343.0144574229124
 20
344.8235660256608
 10
343.9999999999995
 20
341.9722436226798
  0
LINE
  5
AE
330
2
100
AcDbEntity
  8
PROFILE
100
AcDbLine
 10
338.9999999999997
 20
331.9999999999998
 30
0.0
 11
338.9999999999997
 21
387.9999999999997
 31
0.0
  0
LINE
  5
AF
330
2
100
AcDbEntity
  8
PROFILE
100
AcDbLine
 10
314.9999999999999
 20
330.4999999999997
 30
0.0
 11
314.9999999999995
 21
389.4999999999998
 31
0.0
  0
LINE
  5
B0
330
2
100
AcDbEntity
  8
PROFILE
100
AcDbLine
 10
322.999999999999
 20
330.4999999999998
 30
0.0
 11
322.9999999999995
 21
389.4999999999998
 31
0.0
  0
LINE
  5
B1
330
2
100
AcDbEntity
  8
PROFILE
100
AcDbLine
 10
333.9999999999997
 20
331.9999999999998
 30
0.0
 11
333.9999999999997
 21
387.9999999999997
 31
0.0
  0
LINE
  5
B2
330
2
100
AcDbEntity
  8
PROFILE
100
AcDbLine
 10
328.9999999999996
 20
334.9999999999998
 30
0.0
 11
328.9999999999996
 21
384.9999999999998
 31
0.0
  0
LINE
  5
B3
330
2
100
AcDbEntity
  8
PROFILE
100
AcDbLine
 10
353.9999999999992
 20
330.4999999999998
 30
0.0
 11
353.9999999999996
 21
384.7487373415288
 31
0.0
  0
LINE
  5
B4
330
2
100
AcDbEntity
  8
PROFILE
100
AcDbLine
 10
309.9999999999996
 20
335.9999999999998
 30
0.0
 11
309.9999999999996
 21
383.9999999999998
 31
0.0
  0
LINE
  5
B5
330
2
100
AcDbEntity
  8
PROFILE
100
AcDbLine
 10
333.9999999999997
 20
331.9999999999998
 30
0.0
 11
338.9999999999997
 21
331.9999999999998
 31
0.0
  0
LINE
  5
B6
330
2
100
AcDbEntity
  8
PROFILE
  6
DASHED
 62
     4
100
AcDbLine
 10
314.9999999999995
 20
337.7512626584705
 30
0.0
 11
322.9999999999994
 21
337.7512626584705
 31
0.0
  0
LINE
  5
B7
330
2
100
AcDbEntity
  8
PROFILE
  6
DASHED
 62
     4
100
AcDbLine
 10
314.9999999999995
 20
332.7512626584705
 30
0.0
 11
322.9999999999994
 21
332.7512626584705
 31
0.0
  0
LINE
  5
B8
330
2
100
AcDbEntity
  8
PROFILE
100
AcDbLine
 10
314.9999999999995
 20
333.5424868893539
 30
0.0
 11
322.9999999999995
 21
333.5424868893539
 31
0.0
  0
LINE
  5
B9
330
2
100
AcDbEntity
  8
PROFILE
100
AcDbLine
 10
315.4999999999999
 20
329.9999999999997
 30
0.0
 11
322.499999999999
 21
329.9999999999998
 31
0.0
  0
LINE
  5
BA
330
2
100
AcDbEntity
  8
PROFILE
100
AcDbLine
 10
310.9999999999997
 20
334.9999999999998
 30
0.0
 11
314.9999999999997
 21
334.9999999999998
 31
0.0
  0
LINE
  5
BB
330
2
100
AcDbEntity
  8
PROFILE
100
AcDbLine
 10
309.9999999999996
 20
335.9999999999998
 30
0.0
 11
310.9999999999997
 21
334.9999999999998
 31
0.0
  0
LINE
  5
BC
330
2
100
AcDbEntity
  8
PROFILE
100
AcDbLine
 10
315.4999999999999
 20
329.9999999999997
 30
0.0
 11
314.9999999999999
 21
330.4999999999997
 31
0.0
  0
LINE
  5
BD
330
2
100
AcDbEntity
  8
PROFILE
100
AcDbLine
 10
322.9999999999997
 20
334.9999999999998
 30
0.0
 11
328.9999999999996
 21
334.9999999999998
 31
0.0
  0
LINE
  5
BE
330
2
100
AcDbEntity
  8
PROFILE
100
AcDbLine
 10
322.999999999999
 20
330.4999999999998
 30
0.0
 11
322.499999999999
 21
329.9999999999998
 31
0.0
  0
LINE
  5
BF
330
2
100
AcDbEntity
  8
PROFILE
100
AcDbLine
 10
328.9999999999996
 20
334.9999999999998
 30
0.0
 11
333.9999999999997
 21
331.9999999999998
 31
0.0
  0
LINE
  5
C0
330
2
100
AcDbEntity
  8
PROFILE
100
AcDbLine
 10
280.9999999999996
 20
351.9999999999998
 30
0.0
 11
308.9999999999995
 21
351.9999999999997
 31
0.0
  0
LINE
  5
C1
330
2
100
AcDbEntity
  8
PROFILE
100
AcDbLine
 10
280.9999999999998
 20
367.9999999999998
 30
0.0
 11
308.9999999999995
 21
367.9999999999997
 31
0.0
  0
ARC
  5
C2
330
2
100
AcDbEntity
  8
PROFILE
100
AcDbCircle
 10
300.4999999999997
 20
359.9999999999998
 30
0.0
 40
2.500000000000055
100
AcDbArc
 50
270.0
 51
90.0
  0
ARC
  5
C3
330
2
100
AcDbEntity
  8
PROFILE
100
AcDbCircle
 10
285.4999999999996
 20
359.9999999999998
 30
0.0
 40
2.500000000000055
100
AcDbArc
 50
90.0
 51
270.0
  0
LINE
  5
C4
330
2
100
AcDbEntity
  8
PROFILE
100
AcDbLine
 10
279.9999999999998
 20
366.9999999999998
 30
0.0
 11
279.9999999999997
 21
352.9999999999998
 31
0.0
  0
LINE
  5
C5
330
2
100
AcDbEntity
  8
PROFILE
100
AcDbLine
 10
285.4999999999996
 20
357.4999999999998
 30
0.0
 11
300.4999999999997
 21
357.4999999999998
 31
0.0
  0
LINE
  5
C6
330
2
100
AcDbEntity
  8
PROFILE
100
AcDbLine
 10
279.9999999999997
 20
352.9999999999998
 30
0.0
 11
280.9999999999996
 21
351.9999999999998
 31
0.0
  0
LINE
  5
C7
330
2
100
AcDbEntity
  8
PROFILE
100
AcDbLine
 10
285.4999999999996
 20
362.4999999999998
 30
0.0
 11
300.4999999999997
 21
362.4999999999998
 31
0.0
  0
LINE
  5
C8
330
2
100
AcDbEntity
  8
PROFILE
100
AcDbLine
 10
280.9999999999998
 20
367.9999999999998
 30
0.0
 11
279.9999999999998
 21
366.9999999999998
 31
0.0
  0
LINE
  5
C9
330
2
100
AcDbEntity
  8
PROFILE
100
AcDbLine
 10
308.9999999999987
 20
368.2499999999998
 30
0.0
 11
308.9999999999997
 21
351.7499999999972
 31
0.0
  0
LINE
  5
CA
330
2
100
AcDbEntity
  8
PROFILE
100
AcDbLine
 10
308.9999999999987
 20
351.7499999999998
 30
0.0
 11
309.0877501000791
 21
351.499999999999
 31
0.0
  0
LINE
  5
CB
330
2
100
AcDbEntity
  8
PROFILE
100
AcDbLine
 10
309.0877501000791
 20
351.499999999999
 30
0.0
 11
309.9999999999994
 21
351.4999999999992
 31
0.0
  0
LINE
  5
CC
330
2
100
AcDbEntity
  8
PROFILE
100
AcDbLine
 10
308.9999999999987
 20
368.2499999999998
 30
0.0
 11
309.0877501000791
 21
368.5000000000006
 31
0.0
  0
LINE
  5
CD
330
2
100
AcDbEntity
  8
PROFILE
100
AcDbLine
 10
309.0877501000791
 20
368.5000000000006
 30
0.0
 11
309.9999999999994
 21
368.5000000000004
 31
0.0
  0
LINE
  5
CE
330
2
100
AcDbEntity
  8
PROFILE
100
AcDbLine
 10
359.0000000000009
 20
341.9722436226798
 30
0.0
 11
367.0000000000007
 21
333.5424868893539
 31
0.0
  0
LINE
  5
CF
330
2
100
AcDbEntity
  8
PROFILE
100
AcDbLine
 10
359.0000000000009
 20
341.9722436226797
 30
0.0
 11
359.0000000000007
 21
329.9999999999999
 31
0.0
  0
LWPOLYLINE
  5
D0
330
2
100
AcDbEntity
  8
PROFILE
100
AcDbPolyline
 90
       12
 70
   128
 43
0.0
 10
341.6160569943519
 20
335.2512626584706
 10
341.224656996621
 20
336.0033060424797
 10
340.89086590749
 20
336.763496658148
 10
340.6670173867974
 20
337.4021135357196
 10
340.5111565736667
 20
338.0154893189727
 10
340.4354695788604
 20
338.5862685046785
 10
340.4454878189259
 20
339.0907640621606
 10
340.5289977761266
 20
339.4726704926629
 10
340.6761747577815
 20
339.7794570052257
 10
340.8892358149523
 20
340.0154848136756
 10
341.151928153633
 20
340.1685978585078
 10
341.6160569943519
 20
340.2512626584706
  0
LINE
  5
D1
330
2
100
AcDbEntity
  8
PROFILE
100
AcDbLine
 10
353.9999999999996
 20
331.103851927717
 30
0.0
 11
343.9999999999995
 21
331.103851927717
 31
0.0
  0
LWPOLYLINE
  5
D2
330
2
100
AcDbEntity
  8
PROFILE
100
AcDbPolyline
 90
        4
 70
   128
 43
0.0
 10
343.9999999999995
 20
331.103851927717
 10
343.0010959281799
 20
332.8145170965718
 10
342.0183373143484
 20
334.5347035214411
 10
341.6160569943519
 20
335.2512626584706
  0
LINE
  5
D3
330
2
100
AcDbEntity
  8
PROFILE
100
AcDbLine
 10
338.9999999999997
 20
331.9999999999998
 30
0.0
 11
340.4285714285711
 21
329.9999999999998
 31
0.0
  0
LINE
  5
D4
330
2
100
AcDbEntity
  8
PROFILE
100
AcDbLine
 10
343.9999999999997
 20
329.9999999999998
 30
0.0
 11
343.9999999999995
 21
331.103851927717
 31
0.0
  0
LINE
  5
D5
330
2
100
AcDbEntity
  8
PROFILE
100
AcDbLine
 10
353.9999999999992
 20
330.4999999999998
 30
0.0
 11
353.4999999999992
 21
329.9999999999998
 31
0.0
  0
LINE
  5
D6
330
2
100
AcDbEntity
  8
PROFILE
100
AcDbLine
 10
367.0000000000009
 20
333.5424868893539
 30
0.0
 11
367.0000000000007
 21
329.9999999999999
 31
0.0
  0
LINE
  5
D7
330
2
100
AcDbEntity
  8
PROFILE
100
AcDbLine
 10
343.9999999999995
 20
341.9722436226798
 30
0.0
 11
359.0000000000009
 21
341.9722436226799
 31
0.0
  0
LINE
  5
D8
330
2
100
AcDbEntity
  8
PROFILE
100
AcDbLine
 10
343.9999999999995
 20
340.2512626584706
 30
0.0
 11
353.9999999999993
 21
340.2512626584706
 31
0.0
  0
LINE
  5
D9
330
2
100
AcDbEntity
  8
PROFILE
100
AcDbLine
 10
341.6160569943519
 20
340.2512626584706
 30
0.0
 11
343.9999999999995
 21
340.2512626584706
 31
0.0
  0
LINE
  5
DA
330
2
100
AcDbEntity
  8
PROFILE
100
AcDbLine
 10
343.9999999999995
 20
340.2512626584706
 30
0.0
 11
343.9999999999995
 21
341.9722436226798
 31
0.0
  0
CIRCLE
  5
DB
330
2
100
AcDbEntity
  8
PROFILE
100
AcDbCircle
 10
386.9999999999988
 20
369.9999999999998
 30
0.0
 40
4.0
  0
LINE
  5
DC
330
2
100
AcDbEntity
  8
PROFILE
100
AcDbLine
 10
338.9999999999997
 20
387.9999999999997
 30
0.0
 11
333.9999999999997
 21
387.9999999999997
 31
0.0
  0
LINE
  5
DD
330
2
100
AcDbEntity
  8
PROFILE
100
AcDbLine
 10
314.9999999999995
 20
386.4575131106457
 30
0.0
 11
322.9999999999995
 21
386.4575131106457
 31
0.0
  0
LINE
  5
DE
330
2
100
AcDbEntity
  8
PROFILE
  6
DASHED
 62
     4
100
AcDbLine
 10
314.9999999999995
 20
382.248737341529
 30
0.0
 11
322.9999999999994
 21
382.248737341529
 31
0.0
  0
LINE
  5
DF
330
2
100
AcDbEntity
  8
PROFILE
  6
DASHED
 62
     4
100
AcDbLine
 10
314.9999999999995
 20
387.248737341529
 30
0.0
 11
322.9999999999994
 21
387.248737341529
 31
0.0
  0
LINE
  5
E0
330
2
100
AcDbEntity
  8
PROFILE
100
AcDbLine
 10
314.9999999999997
 20
384.9999999999998
 30
0.0
 11
310.9999999999997
 21
384.9999999999998
 31
0.0
  0
LINE
  5
E1
330
2
100
AcDbEntity
  8
PROFILE
100
AcDbLine
 10
310.9999999999997
 20
384.9999999999998
 30
0.0
 11
309.9999999999996
 21
383.9999999999998
 31
0.0
  0
LINE
  5
E2
330
2
100
AcDbEntity
  8
PROFILE
100
AcDbLine
 10
333.9999999999997
 20
387.9999999999997
 30
0.0
 11
328.9999999999996
 21
384.9999999999998
 31
0.0
  0
LINE
  5
E3
330
2
100
AcDbEntity
  8
PROFILE
100
AcDbLine
 10
328.9999999999996
 20
384.9999999999998
 30
0.0
 11
322.9999999999997
 21
384.9999999999998
 31
0.0
  0
LINE
  5
E4
330
2
100
AcDbEntity
  8
PROFILE
100
AcDbLine
 10
359.0000000000009
 20
378.0277563773199
 30
0.0
 11
367.0000000000007
 21
386.4575131106458
 31
0.0
  0
LINE
  5
E5
330
2
100
AcDbEntity
  8
PROFILE
100
AcDbLine
 10
359.0000000000007
 20
378.0277563773197
 30
0.0
 11
343.9999999999995
 21
378.0277563773197
 31
0.0
  0
LINE
  5
E6
330
2
100
AcDbEntity
  8
PROFILE
100
AcDbLine
 10
353.9999999999996
 20
379.7487373415286
 30
0.0
 11
343.9999999999995
 21
379.7487373415286
 31
0.0
  0
LINE
  5
E7
330
2
100
AcDbEntity
  8
PROFILE
100
AcDbLine
 10
343.9999999999995
 20
388.8961480722824
 30
0.0
 11
353.9999999999996
 21
388.8961480722824
 31
0.0
  0
LWPOLYLINE
  5
E8
330
2
100
AcDbEntity
  8
PROFILE
100
AcDbPolyline
 90
        3
 70
   128
 43
0.0
 10
341.6160569943519
 20
384.7487373415288
 10
342.7957332010802
 20
386.8293073676198
 10
343.9999999999995
 20
388.8961480722824
  0
LINE
  5
E9
330
2
100
AcDbEntity
  8
PROFILE
100
AcDbLine
 10
343.9999999999995
 20
379.7487373415286
 30
0.0
 11
341.6160569943519
 21
379.7487373415287
 31
0.0
  0
LWPOLYLINE
  5
EA
330
2
100
AcDbEntity
  8
PROFILE
100
AcDbPolyline
 90
       12
 70
   128
 43
0.0
 10
341.6160569943519
 20
379.7487373415287
 10
341.224656996621
 20
379.8058843881968
 10
340.89086590749
 20
379.9829060047922
 10
340.6670173867974
 20
380.2354197900225
 10
340.5111565736667
 20
380.5823178992054
 10
340.4354695788604
 20
381.0243125978962
 10
340.4454878189259
 20
381.5458903312795
 10
340.5289977761266
 20
382.0698792123997
 10
340.6761747577815
 20
382.6284883094536
 10
340.8892358149523
 20
383.2320850520261
 10
341.151928153633
 20
383.8433012419198
 10
341.6160569943519
 20
384.7487373415288
  0
LINE
  5
EB
330
2
100
AcDbEntity
  8
PROFILE
100
AcDbLine
 10
343.9999999999995
 20
378.0277563773197
 30
0.0
 11
343.9999999999995
 21
379.7487373415286
 31
0.0
  0
LINE
  5
EC
330
2
100
AcDbEntity
  8
PROFILE
100
AcDbLine
 10
340.4285714285711
 20
389.9999999999998
 30
0.0
 11
338.9999999999997
 21
387.9999999999997
 31
0.0
  0
LINE
  5
ED
330
2
100
AcDbEntity
  8
PROFILE
100
AcDbLine
 10
343.9999999999995
 20
388.8961480722824
 30
0.0
 11
343.9999999999997
 21
389.9999999999998
 31
0.0
  0
LINE
  5
EE
330
2
100
AcDbEntity
  8
PROFILE
100
AcDbLine
 10
353.9999999999996
 20
384.7487373415288
 30
0.0
 11
353.9999999999996
 21
389.4999999999998
 31
0.0
  0
LINE
  5
EF
330
2
100
AcDbEntity
  8
PROFILE
100
AcDbLine
 10
359.0000000000009
 20
378.0277563773199
 30
0.0
 11
359.0000000000007
 21
389.9999999999998
 31
0.0
  0
LINE
  5
F0
330
2
100
AcDbEntity
  8
PROFILE
100
AcDbLine
 10
367.0000000000009
 20
386.4575131106458
 30
0.0
 11
367.0000000000007
 21
389.9999999999998
 31
0.0
  0
LINE
  5
F1
330
2
100
AcDbEntity
  8
PROFILE
100
AcDbLine
 10
399.9999999999987
 20
330.4999999999997
 30
0.0
 11
399.9999999999987
 21
389.4999999999997
 31
0.0
  0
LINE
  5
F2
330
2
100
AcDbEntity
  8
PROFILE
100
AcDbLine
 10
399.9999999999987
 20
330.4999999999997
 30
0.0
 11
399.4999999999988
 21
329.9999999999997
 31
0.0
  0
LINE
  5
F8
330
2
100
AcDbEntity
  8
PROFILE
100
AcDbLine
 10
153.5424868893536
 20
390.0000000000002
 30
0.0
 11
206.4575131106458
 21
390.0
 31
0.0
  0
LINE
  5
F9
330
2
100
AcDbEntity
  8
PROFILE
100
AcDbLine
 10
322.999999999999
 20
389.4999999999998
 30
0.0
 11
322.499999999999
 21
389.9999999999998
 31
0.0
  0
LINE
  5
FA
330
2
100
AcDbEntity
  8
PROFILE
100
AcDbLine
 10
315.4999999999999
 20
390.0
 30
0.0
 11
314.9999999999999
 21
389.4999999999998
 31
0.0
  0
LINE
  5
FB
330
2
100
AcDbEntity
  8
PROFILE
100
AcDbLine
 10
315.4999999999999
 20
390.0
 30
0.0
 11
322.499999999999
 21
389.9999999999998
 31
0.0
  0
LINE
  5
FC
330
2
100
AcDbEntity
  8
PROFILE
100
AcDbLine
 10
399.4999999999988
 20
390.0
 30
0.0
 11
340.4336464092546
 21
389.9999999999998
 31
0.0
  0
LINE
  5
FD
330
2
100
AcDbEntity
  8
PROFILE
100
AcDbLine
 10
399.9999999999987
 20
389.4999999999998
 30
0.0
 11
399.4999999999988
 21
390.0
 31
0.0
  0
LINE
  5
FE
330
2
100
AcDbEntity
  8
PROFILE
100
AcDbLine
 10
153.5424868893537
 20
210.0
 30
0.0
 11
206.4575131106459
 21
210.0
 31
0.0
  0
ARC
  5
FF
330
2
100
AcDbEntity
  8
PROFILE
100
AcDbCircle
 10
180.0
 20
180.0
 30
0.0
 40
40.0
100
AcDbArc
 50
41.4096221092709
 51
48.59037789072917
  0
CIRCLE
  5
100
330
2
100
AcDbEntity
  8
PROFILE
100
AcDbCircle
 10
204.7487373415291
 20
204.7487373415291
 30
0.0
 40
2.75
  0
ARC
  5
101
330
2
100
AcDbEntity
  8
PROFILE
  6
CENTER
 62
     1
100
AcDbCircle
 10
180.0
 20
180.0
 30
0.0
 40
35.0
100
AcDbArc
 50
37.90657380465471
 51
52.09342619534537
  0
ARC
  5
102
330
2
100
AcDbEntity
  8
PROFILE
100
AcDbCircle
 10
179.9999999999996
 20
180.0
 30
0.0
 40
40.0
100
AcDbArc
 50
131.4096221092709
 51
138.5903778907291
  0
ARC
  5
103
330
2
100
AcDbEntity
  8
PROFILE
  6
CENTER
 62
     1
100
AcDbCircle
 10
179.9999999999996
 20
180.0
 30
0.0
 40
35.0
100
AcDbArc
 50
127.9065738046547
 51
142.0934261953453
  0
CIRCLE
  5
104
330
2
100
AcDbEntity
  8
PROFILE
100
AcDbCircle
 10
155.2512626584705
 20
204.7487373415292
 30
0.0
 40
2.75
  0
LINE
  5
105
330
2
100
AcDbEntity
  8
PROFILE
100
AcDbLine
 10
187.5993420767853
 20
182.5
 30
0.0
 11
189.9999999999996
 21
182.5
 31
0.0
  0
LINE
  5
106
330
2
100
AcDbEntity
  8
PROFILE
  6
DASHED
 62
     4
100
AcDbLine
 10
185.0000000000001
 20
182.5
 30
0.0
 11
187.5993420767853
 21
182.5
 31
0.0
  0
LINE
  5
107
330
2
100
AcDbEntity
  8
PROFILE
100
AcDbLine
 10
189.9999999999996
 20
177.4999999999996
 30
0.0
 11
187.5993420767853
 21
177.5
 31
0.0
  0
LINE
  5
108
330
2
100
AcDbEntity
  8
PROFILE
  6
DASHED
 62
     4
100
AcDbLine
 10
185.0
 20
177.5
 30
0.0
 11
187.5993420767853
 21
177.5
 31
0.0
  0
CIRCLE
  5
109
330
2
100
AcDbEntity
  8
PROFILE
100
AcDbCircle
 10
180.0
 20
180.0
 30
0.0
 40
8.0
  0
CIRCLE
  5
10A
330
2
100
AcDbEntity
  8
PROFILE
100
AcDbCircle
 10
180.0
 20
180.0
 30
0.0
 40
2.049999999999998
  0
CIRCLE
  5
10B
330
2
100
AcDbEntity
  8
PROFILE
 62
     1
100
AcDbCircle
 10
180.0
 20
180.0
 30
0.0
 40
2.5
  0
ARC
  5
10C
330
2
100
AcDbEntity
  8
PROFILE
100
AcDbCircle
 10
180.0000000000023
 20
179.9999999999976
 30
0.0
 40
8.50000000000125
100
AcDbArc
 50
17.1046351766581
 51
342.8953648233745
  0
CIRCLE
  5
10D
330
2
100
AcDbEntity
  8
PROFILE
100
AcDbCircle
 10
180.0
 20
180.0
 30
0.0
 40
2.999999999999771
  0
CIRCLE
  5
10E
330
2
100
AcDbEntity
  8
PROFILE
 62
     1
100
AcDbCircle
 10
180.0
 20
180.0
 30
0.0
 40
3.850000000000533
  0
LINE
  5
10F
330
2
100
AcDbEntity
  8
PROFILE
  6
DASHED
 62
     4
100
AcDbLine
 10
185.0
 20
177.5
 30
0.0
 11
185.0000000000001
 21
182.5
 31
0.0
  0
LINE
  5
110
330
2
100
AcDbEntity
  8
PROFILE
100
AcDbLine
 10
189.9999999999996
 20
182.5
 30
0.0
 11
189.9999999999996
 21
177.4999999999996
 31
0.0
  0
CIRCLE
  5
111
330
2
100
AcDbEntity
  8
PROFILE
100
AcDbCircle
 10
204.748737341529
 20
155.2512626584706
 30
0.0
 40
2.75
  0
ARC
  5
112
330
2
100
AcDbEntity
  8
PROFILE
100
AcDbCircle
 10
180.0
 20
179.9999999999998
 30
0.0
 40
40.0
100
AcDbArc
 50
311.4096221092709
 51
318.5903778907292
  0
ARC
  5
113
330
2
100
AcDbEntity
  8
PROFILE
  6
CENTER
 62
     1
100
AcDbCircle
 10
180.0
 20
179.9999999999998
 30
0.0
 40
35.0
100
AcDbArc
 50
307.9065738046546
 51
322.0934261953453
  0
ARC
  5
114
330
2
100
AcDbEntity
  8
PROFILE
100
AcDbCircle
 10
179.9999999999998
 20
179.9999999999998
 30
0.0
 40
40.0
100
AcDbArc
 50
221.4096221092709
 51
228.5903778907291
  0
ARC
  5
115
330
2
100
AcDbEntity
  8
PROFILE
  6
CENTER
 62
     1
100
AcDbCircle
 10
179.9999999999998
 20
179.9999999999998
 30
0.0
 40
35.0
100
AcDbArc
 50
217.9065738046547
 51
232.0934261953453
  0
CIRCLE
  5
116
330
2
100
AcDbEntity
  8
PROFILE
100
AcDbCircle
 10
155.2512626584706
 20
155.2512626584706
 30
0.0
 40
2.75
  0
LINE
  5
117
330
2
100
AcDbEntity
  8
PROFILE
100
AcDbLine
 10
153.5424868893541
 20
150.0
 30
0.0
 11
206.4575131106459
 21
150.0
 31
0.0
  0
LINE
  5
118
330
2
100
AcDbEntity
  8
PROFILE
  6
CENTER
 62
     1
100
AcDbLine
 10
147.0
 20
180.0
 30
0.0
 11
213.0
 21
180.0
 31
0.0
  0
CIRCLE
  5
119
330
2
100
AcDbEntity
  8
PROFILE
100
AcDbCircle
 10
180.0000000000023
 20
179.9999999999976
 30
0.0
 40
14.99999999999789
  0
LINE
  5
11A
330
2
100
AcDbEntity
  8
PROFILE
  6
CENTER
 62
     1
100
AcDbLine
 10
207.2585661196714
 20
152.7414338803286
 30
0.0
 11
152.7414338803286
 21
207.2585661196714
 31
0.0
  0
LINE
  5
11B
330
2
100
AcDbEntity
  8
PROFILE
  6
CENTER
 62
     1
100
AcDbLine
 10
152.7414338803286
 20
152.7414338803286
 30
0.0
 11
207.2585661196714
 21
207.2585661196714
 31
0.0
  0
LINE
  5
11C
330
2
100
AcDbEntity
  8
PROFILE
100
AcDbLine
 10
150.0
 20
206.4575131106459
 30
0.0
 11
150.0
 21
153.5424868893541
 31
0.0
  0
LINE
  5
11D
330
2
100
AcDbEntity
  8
PROFILE
100
AcDbLine
 10
210.0
 20
206.4575131106459
 30
0.0
 11
210.0
 21
153.5424868893541
 31
0.0
  0
LINE
  5
11E
330
2
100
AcDbEntity
  8
PROFILE
  6
CENTER
 62
     1
100
AcDbLine
 10
180.0
 20
213.0
 30
0.0
 11
180.0
 21
147.0
 31
0.0
  0
CIRCLE
  5
11F
330
2
100
AcDbEntity
  8
PROFILE
100
AcDbCircle
 10
180.0
 20
180.0
 30
0.0
 40
25.0
  0
TEXT
  5
123
330
2
100
AcDbEntity
  8
PROFILE
100
AcDbText
 10
251.6420118343195
 20
275.0591715976331
 30
0.0
 40
10.0
  1
PB060L1
 72
     4
 11
280.0
 21
280.0
 31
0.0
100
AcDbText
  0
TEXT
  5
125
330
2
100
AcDbEntity
  8
PROFILE
100
AcDbText
 10
251.6420118343196
 20
95.05917159763313
 30
0.0
 40
10.0
  1
PB060L2
 72
     4
 11
280.0000000000001
 21
100.0
 31
0.0
100
AcDbText
  0
DIMENSION
  5
133
330
2
100
AcDbEntity
  8
PROFILE
 62
     6
100
AcDbDimension
  2
*D3
 10
309.9999999999996
 20
314.0
 30
0.0
 11
294.9999999999997
 21
315.5184911242604
 31
0.0
 70
    32
 71
     5
 42
30.0
  3
STANDARD
100
AcDbAlignedDimension
 13
279.9999999999997
 23
352.9999999999998
 33
0.0
 14
309.9999999999996
 24
335.9999999999998
 34
0.0
100
AcDbRotatedDimension
1001
ACAD
1000
DSTYLE
1002
{
1070
   343
1005
2F
1070
   344
1005
2F
1002
}
  0
DIMENSION
  5
141
330
2
100
AcDbEntity
  8
PROFILE
 62
     6
100
AcDbDimension
  2
*D4
 10
314.9999999999999
 20
314.0
 30
0.0
 11
312.4999999999998
 21
315.5320512820513
 31
0.0
 70
    32
 71
     5
 42
5.000000000000226
  3
STANDARD
100
AcDbAlignedDimension
 13
309.9999999999996
 23
335.9999999999998
 33
0.0
 14
314.9999999999999
 24
330.4999999999997
 34
0.0
100
AcDbRotatedDimension
1001
ACAD
1000
DSTYLE
1002
{
1070
   343
1005
2F
1070
   344
1005
2F
1002
}
  0
DIMENSION
  5
14E
330
2
100
AcDbEntity
  8
PROFILE
 62
     6
100
AcDbDimension
  2
*D5
 10
399.9999999999987
 20
314.0
 30
0.0
 11
357.4999999999993
 21
315.5320512820513
 31
0.0
 70
    32
 71
     5
 42
84.99999999999884
  3
STANDARD
100
AcDbAlignedDimension
 13
314.9999999999999
 23
330.4999999999997
 33
0.0
 14
399.9999999999987
 24
330.4999999999997
 34
0.0
100
AcDbRotatedDimension
1001
ACAD
1000
DSTYLE
1002
{
1070
   343
1005
2F
1070
   344
1005
2F
1002
}
  0
DIMENSION
  5
15B
330
2
100
AcDbEntity
  8
PROFILE
 62
     6
100
AcDbDimension
  2
*D6
 10
322.999999999999
 20
320.5
 30
0.0
 11
318.9999999999994
 21
322.0172583826431
 31
0.0
 70
    32
 71
     5
 42
7.99999999999909
  3
STANDARD
100
AcDbAlignedDimension
 13
314.9999999999999
 23
330.4999999999997
 33
0.0
 14
322.999999999999
 24
330.4999999999998
 34
0.0
100
AcDbRotatedDimension
1001
ACAD
1000
DSTYLE
1002
{
1070
   343
1005
2F
1070
   344
1005
2F
1002
}
  0
DIMENSION
  5
168
330
2
100
AcDbEntity
  8
PROFILE
 62
     6
100
AcDbDimension
  2
*D7
 10
308.9999999999997
 20
320.5
 30
0.0
 11
294.4999999999997
 21
322.0271203155818
 31
0.0
 70
    32
 71
     5
 42
29.0
  3
STANDARD
100
AcDbAlignedDimension
 13
279.9999999999997
 23
352.9999999999998
 33
0.0
 14
308.9999999999997
 24
351.7499999999972
 34
0.0
100
AcDbRotatedDimension
1001
ACAD
1000
DSTYLE
1002
{
1070
   343
1005
2F
1070
   344
1005
2F
1002
}
  0
DIMENSION
  5
175
330
2
100
AcDbEntity
  8
PROFILE
 62
     6
100
AcDbDimension
  2
*D8
 10
209.9999999999999
 20
314.0
 30
0.0
 11
179.9999999999999
 21
315.5246548323471
 31
0.0
 70
    32
 71
     5
 42
60.0
  3
STANDARD
100
AcDbAlignedDimension
 13
149.9999999999999
 23
333.5424868893536
 33
0.0
 14
209.9999999999999
 24
333.5424868893539
 34
0.0
100
AcDbRotatedDimension
1001
ACAD
1000
DSTYLE
1002
{
1070
   343
1005
2F
1070
   344
1005
2F
1002
}
  0
DIMENSION
  5
182
330
2
100
AcDbEntity
  8
PROFILE
 62
     6
100
AcDbDimension
  2
*D9
 10
189.9999999999995
 20
319.0
 30
0.0
 11
180.9999999999998
 21
320.517258382643
 31
0.0
 70
    32
 71
     5
 42
17.99999999999977
  3
STANDARD
100
AcDbAlignedDimension
 13
171.9999999999999
 23
360.0
 33
0.0
 14
189.9999999999995
 24
357.4999999999998
 34
0.0
100
AcDbRotatedDimension
1001
ACAD
1000
DSTYLE
1002
{
1070
   343
1005
2F
1070
   344
1005
2F
1002
}
  0
DIMENSION
  5
198
330
2
100
AcDbEntity
  8
PROFILE
 62
     6
100
AcDbDimension
  2
*D10
 10
268.0
 20
367.9999999999998
 30
0.0
 11
266.3298816568047
 21
359.9999999999998
 31
0.0
 70
    32
 71
     5
 42
16.00000000000006
  3
R
100
AcDbAlignedDimension
 13
280.9999999999996
 23
351.9999999999998
 33
0.0
 14
280.9999999999998
 24
367.9999999999998
 34
0.0
 50
90.0
100
AcDbRotatedDimension
  0
DIMENSION
  5
1A5
330
2
100
AcDbEntity
  8
PROFILE
 62
     6
100
AcDbDimension
  2
*D11
 10
263.5000000000001
 20
384.9999999999998
 30
0.0
 11
261.8298816568047
 21
359.9999999999998
 31
0.0
 70
    32
 71
     5
 42
50.0
  3
R
100
AcDbAlignedDimension
 13
310.9999999999997
 23
334.9999999999998
 33
0.0
 14
310.9999999999997
 24
384.9999999999998
 34
0.0
 50
90.0
100
AcDbRotatedDimension
  0
DIMENSION
  5
1B2
330
2
100
AcDbEntity
  8
PROFILE
 62
     6
100
AcDbDimension
  2
*D19
 10
263.5000000000002
 20
204.9999999999998
 30
0.0
 11
261.8298816568048
 21
179.9999999999998
 31
0.0
 70
    32
 71
     5
 42
50.0
  3
R
100
AcDbAlignedDimension
 13
310.9999999999998
 23
154.9999999999998
 33
0.0
 14
310.9999999999998
 24
204.9999999999998
 34
0.0
 50
90.0
100
AcDbRotatedDimension
  0
DIMENSION
  5
1B3
330
2
100
AcDbEntity
  8
PROFILE
 62
     6
100
AcDbDimension
  2
*D15
 10
308.9999999999998
 20
140.5
 30
0.0
 11
294.4999999999998
 21
142.0271203155819
 31
0.0
 70
    32
 71
     5
 42
29.0
  3
STANDARD
100
AcDbAlignedDimension
 13
279.9999999999998
 23
172.9999999999998
 33
0.0
 14
308.9999999999998
 24
171.7499999999972
 34
0.0
100
AcDbRotatedDimension
1001
ACAD
1000
DSTYLE
1002
{
1070
   343
1005
2F
1070
   344
1005
2F
1002
}
  0
DIMENSION
  5
1B4
330
2
100
AcDbEntity
  8
PROFILE
 62
     6
100
AcDbDimension
  2
*D12
 10
309.9999999999998
 20
134.0
 30
0.0
 11
294.9999999999998
 21
135.5184911242604
 31
0.0
 70
    32
 71
     5
 42
30.0
  3
STANDARD
100
AcDbAlignedDimension
 13
279.9999999999998
 23
172.9999999999998
 33
0.0
 14
309.9999999999998
 24
155.9999999999998
 34
0.0
100
AcDbRotatedDimension
1001
ACAD
1000
DSTYLE
1002
{
1070
   343
1005
2F
1070
   344
1005
2F
1002
}
  0
DIMENSION
  5
1B5
330
2
100
AcDbEntity
  8
PROFILE
 62
     6
100
AcDbDimension
  2
*D18
 10
268.0000000000001
 20
187.9999999999999
 30
0.0
 11
266.3298816568048
 21
179.9999999999999
 31
0.0
 70
    32
 71
     5
 42
16.00000000000006
  3
R
100
AcDbAlignedDimension
 13
280.9999999999998
 23
171.9999999999998
 33
0.0
 14
281.0
 24
187.9999999999999
 34
0.0
 50
90.0
100
AcDbRotatedDimension
  0
DIMENSION
  5
1B6
330
2
100
AcDbEntity
  8
PROFILE
 62
     6
100
AcDbDimension
  2
*D17
 10
189.9999999999996
 20
139.0
 30
0.0
 11
180.9999999999999
 21
140.517258382643
 31
0.0
 70
    32
 71
     5
 42
17.99999999999977
  3
STANDARD
100
AcDbAlignedDimension
 13
172.0
 23
180.0
 33
0.0
 14
189.9999999999996
 24
177.4999999999998
 34
0.0
100
AcDbRotatedDimension
1001
ACAD
1000
DSTYLE
1002
{
1070
   343
1005
2F
1070
   344
1005
2F
1002
}
  0
DIMENSION
  5
1B7
330
2
100
AcDbEntity
  8
PROFILE
 62
     6
100
AcDbDimension
  2
*D16
 10
210.0
 20
134.0
 30
0.0
 11
180.0
 21
135.5246548323472
 31
0.0
 70
    32
 71
     5
 42
60.0
  3
STANDARD
100
AcDbAlignedDimension
 13
150.0
 23
153.5424868893536
 33
0.0
 14
210.0
 24
153.542486889354
 34
0.0
100
AcDbRotatedDimension
1001
ACAD
1000
DSTYLE
1002
{
1070
   343
1005
2F
1070
   344
1005
2F
1002
}
  0
DIMENSION
  5
1B8
330
2
100
AcDbEntity
  8
PROFILE
 62
     6
100
AcDbDimension
  2
*D14
 10
322.9999999999991
 20
140.5
 30
0.0
 11
318.9999999999995
 21
142.017258382643
 31
0.0
 70
    32
 71
     5
 42
7.99999999999909
  3
STANDARD
100
AcDbAlignedDimension
 13
315.0
 23
150.4999999999997
 33
0.0
 14
322.9999999999991
 24
150.4999999999998
 34
0.0
100
AcDbRotatedDimension
1001
ACAD
1000
DSTYLE
1002
{
1070
   343
1005
2F
1070
   344
1005
2F
1002
}
  0
DIMENSION
  5
1B9
330
2
100
AcDbEntity
  8
PROFILE
 62
     6
100
AcDbDimension
  2
*D13
 10
419.4999999999988
 20
134.0
 30
0.0
 11
367.2499999999995
 21
135.5332840236687
 31
0.0
 70
    32
 71
     5
 42
104.4999999999989
  3
STANDARD
100
AcDbAlignedDimension
 13
315.0
 23
150.4999999999997
 33
0.0
 14
419.4999999999988
 24
150.4999999999997
 34
0.0
100
AcDbRotatedDimension
1001
ACAD
1000
DSTYLE
1002
{
1070
   343
1005
2F
1070
   344
1005
2F
1002
}
  0
DIMENSION
  5
275
330
2
100
AcDbEntity
  8
PROFILE
 62
     6
100
AcDbDimension
  2
*D20
 10
218.0
 20
362.5
 30
0.0
 11
216.4679487179487
 21
360.0
 31
0.0
 70
    32
 71
     5
 42
5.00000000000017
  3
STANDARD
100
AcDbAlignedDimension
 13
189.9999999999995
 23
357.4999999999998
 33
0.0
 14
189.9999999999995
 24
362.5
 34
0.0
 50
90.0
100
AcDbRotatedDimension
  0
DIMENSION
  5
282
330
2
100
AcDbEntity
  8
PROFILE
 62
     6
100
AcDbDimension
  2
*D21
 10
279.9999999999997
 20
343.5
 30
0.0
 11
281.4999999999997
 21
345.017258382643
 31
0.0
 70
    32
 71
     5
 42
2.999999999999829
  3
STANDARD
100
AcDbAlignedDimension
 13
282.9999999999996
 23
359.9999999999998
 33
0.0
 14
279.9999999999997
 24
352.9999999999998
 34
0.0
100
AcDbRotatedDimension
  0
DIMENSION
  5
28F
330
2
100
AcDbEntity
  8
PROFILE
 62
     6
100
AcDbDimension
  2
*D22
 10
302.9999999999998
 20
343.5
 30
0.0
 11
292.9999999999997
 21
345.0184911242604
 31
0.0
 70
    32
 71
     5
 42
20.00000000000023
  3
STANDARD
100
AcDbAlignedDimension
 13
282.9999999999996
 23
359.9999999999998
 33
0.0
 14
302.9999999999998
 24
359.9999999999998
 34
0.0
100
AcDbRotatedDimension
  0
DIMENSION
  5
29C
330
2
100
AcDbEntity
  8
PROFILE
 62
     6
100
AcDbDimension
  2
*D25
 10
218.0
 20
182.4999999999999
 30
0.0
 11
216.4679487179487
 21
179.9999999999999
 31
0.0
 70
    32
 71
     5
 42
5.00000000000017
  3
STANDARD
100
AcDbAlignedDimension
 13
189.9999999999995
 23
177.4999999999998
 33
0.0
 14
189.9999999999995
 24
182.5
 34
0.0
 50
90.0
100
AcDbRotatedDimension
  0
DIMENSION
  5
29D
330
2
100
AcDbEntity
  8
PROFILE
 62
     6
100
AcDbDimension
  2
*D24
 10
302.9999999999998
 20
163.4999999999999
 30
0.0
 11
292.9999999999997
 21
165.0184911242603
 31
0.0
 70
    32
 71
     5
 42
20.00000000000023
  3
STANDARD
100
AcDbAlignedDimension
 13
282.9999999999996
 23
179.9999999999998
 33
0.0
 14
302.9999999999998
 24
179.9999999999998
 34
0.0
100
AcDbRotatedDimension
  0
DIMENSION
  5
29E
330
2
100
AcDbEntity
  8
PROFILE
 62
     6
100
AcDbDimension
  2
*D23
 10
279.9999999999997
 20
163.4999999999999
 30
0.0
 11
281.4999999999997
 21
165.017258382643
 31
0.0
 70
    32
 71
     5
 42
2.999999999999829
  3
STANDARD
100
AcDbAlignedDimension
 13
282.9999999999996
 23
179.9999999999998
 33
0.0
 14
279.9999999999997
 24
172.9999999999998
 34
0.0
100
AcDbRotatedDimension
  0
DIMENSION
  5
2DE
330
2
100
AcDbEntity
  8
PROFILE
 62
     6
100
AcDbDimension
  2
*D26
 10
152.8073510318655
 20
337.9645775603048
 30
0.0
 11
212.5016065199037
 21
385.8041524438137
 31
0.0
 70
    35
 71
     5
 42
70.0
  3
ARR
100
AcDbDiametricDimension
 15
207.1926489681343
 25
382.035422439695
 35
0.0
 40
0.0
1001
ACAD
1000
DSTYLE
1002
{
1070
   279
1070
     1
1002
}
  0
DIMENSION
  5
2F2
330
2
100
AcDbEntity
  8
PROFILE
 62
     6
100
AcDbDimension
  2
*D27
 10
207.498737341529
 20
393.5
 30
0.0
 11
211.4804927655921
 21
395.1701183431953
 31
0.0
 70
    32
 71
     5
 42
5.5
  3
R
100
AcDbAlignedDimension
 13
201.998737341529
 23
384.7487373415291
 33
0.0
 14
207.498737341529
 24
384.7487373415291
 34
0.0
100
AcDbRotatedDimension
  0
DIMENSION
  5
300
330
2
100
AcDbEntity
  8
PROFILE
 62
     6
100
AcDbDimension
  2
*D29
 10
207.4987373415292
 20
213.5
 30
0.0
 11
211.4804927655923
 21
215.1701183431952
 31
0.0
 70
    32
 71
     5
 42
5.5
  3
R
100
AcDbAlignedDimension
 13
201.9987373415291
 23
204.7487373415291
 33
0.0
 14
207.4987373415292
 24
204.7487373415291
 34
0.0
100
AcDbRotatedDimension
  0
DIMENSION
  5
301
330
2
100
AcDbEntity
  8
PROFILE
 62
     6
100
AcDbDimension
  2
*D28
 10
152.8073510318656
 20
157.9645775603048
 30
0.0
 11
212.5016065199038
 21
205.8041524438136
 31
0.0
 70
    35
 71
     5
 42
70.0
  3
ARR
100
AcDbDiametricDimension
 15
207.1926489681345
 25
202.035422439695
 35
0.0
 40
0.0
1001
ACAD
1000
DSTYLE
1002
{
1070
   279
1070
     1
1002
}
  0
DIMENSION
  5
332
330
2
100
AcDbEntity
  8
PROFILE
 62
     6
100
AcDbDimension
  2
*D30
 10
315.0000000000001
 20
133.9999999999999
 30
0.0
 11
312.4999999999999
 21
135.5320512820512
 31
0.0
 70
    32
 71
     5
 42
5.000000000000284
  3
STANDARD
100
AcDbAlignedDimension
 13
309.9999999999998
 23
155.9999999999998
 33
0.0
 14
315.0000000000001
 24
150.4999999999997
 34
0.0
100
AcDbRotatedDimension
1001
ACAD
1000
DSTYLE
1002
{
1070
   343
1005
2F
1070
   344
1005
2F
1002
}
  0
ENDSEC
  0
SECTION
  2
OBJECTS
  0
DICTIONARY
  5
7
330
0
100
AcDbDictionary
281
     1
  3
ACAD_COLOR
350
2E
  3
ACAD_GROUP
350
2A
  3
ACAD_LAYOUT
350
B
  3
ACAD_MATERIAL
350
2D
  3
ACAD_MLINESTYLE
350
2B
  3
ACAD_PLOTSETTINGS
350
2C
  3
ACAD_PLOTSTYLENAME
350
6
  0
DICTIONARY
  5
2E
102
{ACAD_REACTORS
330
7
102
}
330
7
100
AcDbDictionary
281
     1
  0
DICTIONARY
  5
2A
102
{ACAD_REACTORS
330
7
102
}
330
7
100
AcDbDictionary
281
     1
  0
DICTIONARY
  5
B
102
{ACAD_REACTORS
330
7
102
}
330
7
100
AcDbDictionary
281
     1
  3
Model
350
A
  3
PLOTER
350
F
  0
DICTIONARY
  5
2D
102
{ACAD_REACTORS
330
7
102
}
330
7
100
AcDbDictionary
281
     1
  0
DICTIONARY
  5
2B
102
{ACAD_REACTORS
330
7
102
}
330
7
100
AcDbDictionary
281
     1
  3
Standard
350
33
  0
DICTIONARY
  5
2C
102
{ACAD_REACTORS
330
7
102
}
330
7
100
AcDbDictionary
281
     1
  0
ACDBDICTIONARYWDFLT
  5
6
102
{ACAD_REACTORS
330
7
102
}
330
7
100
AcDbDictionary
281
     1
  3
Normal
350
5
100
AcDbDictionaryWithDefault
340
5
  0
LAYOUT
  5
A
102
{ACAD_REACTORS
330
B
102
}
330
B
100
AcDbPlotSettings
  1

  2
none_device
  4
ANSI_A_(8.50_x_11.00_Inches)
  6

 40
6.349999904632567
 41
19.04999923706055
 42
6.350006103515625
 43
19.04998779296875
 44
215.8999938964844
 45
279.3999938964844
 46
0.0
 47
0.0
 48
0.0
 49
0.0
140
0.0
141
0.0
142
1.0
143
78.436453180766
 70
 11952
 72
     0
 73
     1
 74
     0
  7

 75
     0
147
0.0127491741332998
 76
     0
 77
     2
 78
   300
148
0.0
149
0.0
100
AcDbLayout
  1
Model
 70
     1
 71
     0
 10
0.0
 20
0.0
 11
12.0
 21
9.0
 12
0.0
 22
0.0
 32
0.0
 14
0.0
 24
0.0
 34
0.0
 15
0.0
 25
0.0
 35
0.0
146
0.0
 13
0.0
 23
0.0
 33
0.0
 16
1.0
 26
0.0
 36
0.0
 17
0.0
 27
1.0
 37
0.0
 76
     0
330
2
  0
LAYOUT
  5
F
102
{ACAD_REACTORS
330
B
102
}
330
B
100
AcDbPlotSettings
  1

  2
RICOH Aficio 2027 RPCS
  4
A4
  6

 40
5.027083396911621
 41
5.027085304260253
 42
5.027084350585936
 43
5.027069091796875
 44
209.9733276367186
 45
296.9259948730469
 46
0.95
 47
1.419999999999999
 48
0.0
 49
0.0
140
0.0
141
0.0
142
1.0
143
1.0
 70
   692
 72
     1
 73
     1
 74
     1
  7
monochrome.ctb
 75
    16
147
1.0
 76
     1
 77
     2
 78
   300
148
0.0050791285943888
149
0.008686521099321
100
AcDbLayout
  1
PLOTER
 70
     1
 71
     1
 10
-6.452148220391262
 20
-5.985769918010943
 11
290.4738466526556
 21
203.9875577187078
 12
0.0
 22
0.0
 32
0.0
 14
0.0
 24
0.0
 34
0.0
 15
284.0
 25
198.0
 35
0.0
146
0.0
 13
0.0
 23
0.0
 33
0.0
 16
1.0
 26
0.0
 36
0.0
 17
0.0
 27
1.0
 37
0.0
 76
     0
330
C
  0
MLINESTYLE
  5
33
102
{ACAD_REACTORS
330
2B
102
}
330
2B
100
AcDbMlineStyle
  2
STANDARD
 70
     0
  3

 62
   256
 51
90.0
 52
90.0
 71
     2
 49
0.5
 62
   256
  6
BYLAYER
 49
-0.5
 62
   256
  6
BYLAYER
  0
ACDBPLACEHOLDER
  5
5
102
{ACAD_REACTORS
330
6
102
}
330
6
  0
ENDSEC
  0
EOF
