  0
SECTION
  2
HEADER
  9
$ACADVER
  1
AC1018
  9
$ACADMAINTVER
 70
     0
  9
$DWGCODEPAGE
  3
ANSI_950
  9
$INSBASE
 10
0.0
 20
0.0
 30
0.0
  9
$EXTMIN
 10
128.9978098694673
 20
91.7968797634785
 30
-0.0015258207003583
  9
$EXTMAX
 10
472.0916788467339
 20
420.3186063332468
 30
0.0000000349246037
  9
$LIMMIN
 10
0.0
 20
0.0
  9
$LIMMAX
 10
3000.0
 20
2000.0
  9
$ORTHOMODE
 70
     1
  9
$REGENMODE
 70
     1
  9
$FILLMODE
 70
     1
  9
$QTEXTMODE
 70
     0
  9
$MIRRTEXT
 70
     0
  9
$LTSCALE
 40
10.0
  9
$ATTMODE
 70
     1
  9
$TEXTSIZE
 40
10.0
  9
$TRACEWID
 40
0.05
  9
$TEXTSTYLE
  7
STANDARD
  9
$CLAYER
  8
PROFILE
  9
$CELTYPE
  6
BYLAYER
  9
$CECOLOR
 62
     6
  9
$CELTSCALE
 40
1.0
  9
$DISPSILH
 70
     0
  9
$DIMSCALE
 40
1.0
  9
$DIMASZ
 40
1.5
  9
$DIMEXO
 40
1.0
  9
$DIMDLI
 40
0.0
  9
$DIMRND
 40
0.0
  9
$DIMDLE
 40
1.0
  9
$DIMEXE
 40
1.0
  9
$DIMTP
 40
0.0
  9
$DIMTM
 40
0.0
  9
$DIMTXT
 40
2.5
  9
$DIMCEN
 40
0.0
  9
$DIMTSZ
 40
0.0
  9
$DIMTOL
 70
     0
  9
$DIMLIM
 70
     0
  9
$DIMTIH
 70
     0
  9
$DIMTOH
 70
     0
  9
$DIMSE1
 70
     0
  9
$DIMSE2
 70
     0
  9
$DIMTAD
 70
     1
  9
$DIMZIN
 70
     8
  9
$DIMBLK
  1
ArchTick
  9
$DIMASO
 70
     1
  9
$DIMSHO
 70
     1
  9
$DIMPOST
  1
%%c<>
  9
$DIMAPOST
  1

  9
$DIMALT
 70
     0
  9
$DIMALTD
 70
     2
  9
$DIMALTF
 40
25.4
  9
$DIMLFAC
 40
1.0
  9
$DIMTOFL
 70
     1
  9
$DIMTVP
 40
0.0
  9
$DIMTIX
 70
     0
  9
$DIMSOXD
 70
     0
  9
$DIMSAH
 70
     0
  9
$DIMBLK1
  1

  9
$DIMBLK2
  1

  9
$DIMSTYLE
  2
R
  9
$DIMCLRD
 70
     0
  9
$DIMCLRE
 70
     0
  9
$DIMCLRT
 70
     7
  9
$DIMTFAC
 40
0.8
  9
$DIMGAP
 40
1.0
  9
$DIMJUST
 70
     0
  9
$DIMSD1
 70
     0
  9
$DIMSD2
 70
     0
  9
$DIMTOLJ
 70
     1
  9
$DIMTZIN
 70
     8
  9
$DIMALTZ
 70
     8
  9
$DIMALTTZ
 70
     8
  9
$DIMUPT
 70
     0
  9
$DIMDEC
 70
     3
  9
$DIMTDEC
 70
     3
  9
$DIMALTU
 70
     2
  9
$DIMALTTD
 70
     2
  9
$DIMTXSTY
  7
STANDARD
  9
$DIMAUNIT
 70
     0
  9
$DIMADEC
 70
     0
  9
$DIMALTRND
 40
0.0
  9
$DIMAZIN
 70
     0
  9
$DIMDSEP
 70
    46
  9
$DIMATFIT
 70
     1
  9
$DIMFRAC
 70
     0
  9
$DIMLDRBLK
  1
DotSmall
  9
$DIMLUNIT
 70
     2
  9
$DIMLWD
 70
    -2
  9
$DIMLWE
 70
    -2
  9
$DIMTMOVE
 70
     0
  9
$LUNITS
 70
     2
  9
$LUPREC
 70
     3
  9
$SKETCHINC
 40
0.01
  9
$FILLETRAD
 40
0.0
  9
$AUNITS
 70
     0
  9
$AUPREC
 70
     2
  9
$MENU
  1
R12
  9
$ELEVATION
 40
0.0
  9
$PELEVATION
 40
0.0
  9
$THICKNESS
 40
0.0
  9
$LIMCHECK
 70
     0
  9
$CHAMFERA
 40
1.0
  9
$CHAMFERB
 40
1.0
  9
$CHAMFERC
 40
0.0
  9
$CHAMFERD
 40
0.0
  9
$SKPOLY
 70
     0
  9
$TDCREATE
 40
2450776.555603126
  9
$TDUCREATE
 40
2450776.222269792
  9
$TDUPDATE
 40
2455295.678975324
  9
$TDUUPDATE
 40
2455295.345641991
  9
$TDINDWG
 40
10.5184141088
  9
$TDUSRTIMER
 40
10.5184141088
  9
$USRTIMER
 70
     1
  9
$ANGBASE
 50
0.0
  9
$ANGDIR
 70
     0
  9
$PDMODE
 70
     0
  9
$PDSIZE
 40
0.0
  9
$PLINEWID
 40
0.0
  9
$SPLFRAME
 70
     0
  9
$SPLINETYPE
 70
     6
  9
$SPLINESEGS
 70
     8
  9
$HANDSEED
  5
5AA
  9
$SURFTAB1
 70
     6
  9
$SURFTAB2
 70
     6
  9
$SURFTYPE
 70
     6
  9
$SURFU
 70
     6
  9
$SURFV
 70
     6
  9
$UCSBASE
  2

  9
$UCSNAME
  2

  9
$UCSORG
 10
0.0
 20
0.0
 30
0.0
  9
$UCSXDIR
 10
1.0
 20
0.0
 30
0.0
  9
$UCSYDIR
 10
0.0
 20
1.0
 30
0.0
  9
$UCSORTHOREF
  2

  9
$UCSORTHOVIEW
 70
     0
  9
$UCSORGTOP
 10
0.0
 20
0.0
 30
0.0
  9
$UCSORGBOTTOM
 10
0.0
 20
0.0
 30
0.0
  9
$UCSORGLEFT
 10
0.0
 20
0.0
 30
0.0
  9
$UCSORGRIGHT
 10
0.0
 20
0.0
 30
0.0
  9
$UCSORGFRONT
 10
0.0
 20
0.0
 30
0.0
  9
$UCSORGBACK
 10
0.0
 20
0.0
 30
0.0
  9
$PUCSBASE
  2

  9
$PUCSNAME
  2

  9
$PUCSORG
 10
0.0
 20
0.0
 30
0.0
  9
$PUCSXDIR
 10
1.0
 20
0.0
 30
0.0
  9
$PUCSYDIR
 10
0.0
 20
1.0
 30
0.0
  9
$PUCSORTHOREF
  2

  9
$PUCSORTHOVIEW
 70
     0
  9
$PUCSORGTOP
 10
0.0
 20
0.0
 30
0.0
  9
$PUCSORGBOTTOM
 10
0.0
 20
0.0
 30
0.0
  9
$PUCSORGLEFT
 10
0.0
 20
0.0
 30
0.0
  9
$PUCSORGRIGHT
 10
0.0
 20
0.0
 30
0.0
  9
$PUCSORGFRONT
 10
0.0
 20
0.0
 30
0.0
  9
$PUCSORGBACK
 10
0.0
 20
0.0
 30
0.0
  9
$USERI1
 70
     0
  9
$USERI2
 70
     0
  9
$USERI3
 70
     0
  9
$USERI4
 70
     0
  9
$USERI5
 70
     0
  9
$USERR1
 40
0.0
  9
$USERR2
 40
0.0
  9
$USERR3
 40
0.0
  9
$USERR4
 40
0.0
  9
$USERR5
 40
0.0
  9
$WORLDVIEW
 70
     1
  9
$SHADEDGE
 70
     3
  9
$SHADEDIF
 70
    70
  9
$TILEMODE
 70
     1
  9
$MAXACTVP
 70
    16
  9
$PINSBASE
 10
2095.847254408377
 20
50.0
 30
1850.862055147869
  9
$PLIMCHECK
 70
     0
  9
$PEXTMIN
 10
1.000000000000000E+20
 20
1.000000000000000E+20
 30
1.000000000000000E+20
  9
$PEXTMAX
 10
-1.000000000000000E+20
 20
-1.000000000000000E+20
 30
-1.000000000000000E+20
  9
$PLIMMIN
 10
-6.461820029265644
 20
-5.980888812763862
  9
$PLIMMAX
 10
290.4641748437812
 20
203.9924388239549
  9
$UNITMODE
 70
     0
  9
$VISRETAIN
 70
     0
  9
$PLINEGEN
 70
     0
  9
$PSLTSCALE
 70
     1
  9
$TREEDEPTH
 70
  3020
  9
$CMLSTYLE
  2
STANDARD
  9
$CMLJUST
 70
     0
  9
$CMLSCALE
 40
1.0
  9
$PROXYGRAPHICS
 70
     1
  9
$MEASUREMENT
 70
     0
  9
$CELWEIGHT
370
    -1
  9
$ENDCAPS
280
     0
  9
$JOINSTYLE
280
     0
  9
$LWDISPLAY
290
     0
  9
$INSUNITS
 70
     0
  9
$HYPERLINKBASE
  1

  9
$STYLESHEET
  1

  9
$XEDIT
290
     1
  9
$CEPSNTYPE
380
     0
  9
$PSTYLEMODE
290
     1
  9
$FINGERPRINTGUID
  2
{49667521-76AB-472E-A610-ABE6D659B42C}
  9
$VERSIONGUID
  2
{5DD1B596-09E1-4A03-B3D8-2427FB207045}
  9
$EXTNAMES
290
     1
  9
$PSVPSCALE
 40
0.0
  9
$OLESTARTUP
290
     0
  9
$SORTENTS
280
   127
  9
$INDEXCTL
280
     0
  9
$HIDETEXT
280
     1
  9
$XCLIPFRAME
290
     0
  9
$HALOGAP
280
     0
  9
$OBSCOLOR
 70
   257
  9
$OBSLTYPE
280
     0
  9
$INTERSECTIONDISPLAY
280
     0
  9
$INTERSECTIONCOLOR
 70
   257
  9
$DIMASSOC
280
     1
  9
$PROJECTNAME
  1

  0
ENDSEC
  0
SECTION
  2
CLASSES
  0
CLASS
  1
DICTIONARYVAR
  2
AcDbDictionaryVar
  3
ObjectDBX Classes
 90
        0
 91
        0
280
     0
281
     0
  0
CLASS
  1
ACDBDICTIONARYWDFLT
  2
AcDbDictionaryWithDefault
  3
ObjectDBX Classes
 90
        0
 91
        1
280
     0
281
     0
  0
ENDSEC
  0
SECTION
  2
TABLES
  0
TABLE
  2
VPORT
  5
1A
330
0
100
AcDbSymbolTable
 70
     4
  0
VPORT
  5
5A9
330
1A
100
AcDbSymbolTableRecord
100
AcDbViewportTableRecord
  2
*Active
 70
     0
 10
0.0
 20
0.0
 11
1.0
 21
1.0
 12
300.5447443581006
 22
256.0577430483627
 13
0.0
 23
0.0
 14
0.5
 24
0.5
 15
10.0
 25
10.0
 16
0.0
 26
0.0
 36
1.0
 17
0.0
 27
0.0
 37
0.0
 40
332.2691226903361
 41
1.809523809523809
 42
50.0
 43
0.0
 44
0.0
 50
0.0
 51
0.0
 71
     0
 72
   100
 73
     1
 74
     0
 75
     1
 76
     0
 77
     0
 78
     2
281
     0
 65
     1
110
0.0
120
0.0
130
0.0
111
1.0
121
0.0
131
0.0
112
0.0
122
1.0
132
0.0
 79
     0
146
0.0
  0
ENDTAB
  0
TABLE
  2
LTYPE
  5
15
330
0
100
AcDbSymbolTable
 70
     3
  0
LTYPE
  5
16
330
15
100
AcDbSymbolTableRecord
100
AcDbLinetypeTableRecord
  2
BYBLOCK
 70
     0
  3

 72
    65
 73
     0
 40
0.0
  0
LTYPE
  5
17
330
15
100
AcDbSymbolTableRecord
100
AcDbLinetypeTableRecord
  2
BYLAYER
 70
     0
  3

 72
    65
 73
     0
 40
0.0
  0
LTYPE
  5
8
330
15
100
AcDbSymbolTableRecord
100
AcDbLinetypeTableRecord
  2
CONTINUOUS
 70
     0
  3
Solid line
 72
    65
 73
     0
 40
0.0
  0
LTYPE
  5
41
330
15
100
AcDbSymbolTableRecord
100
AcDbLinetypeTableRecord
  2
CENTER
 70
     0
  3
____ _ ____ _ ____ _ ____ _ ____ _ ____ _ ____ 
 72
    65
 73
     4
 40
2.0
 49
1.25
 74
     0
 49
-0.25
 74
     0
 49
0.25
 74
     0
 49
-0.25
 74
     0
  0
ENDTAB
  0
TABLE
  2
LAYER
  5
10
330
0
100
AcDbSymbolTable
 70
     3
  0
LAYER
  5
4
330
10
100
AcDbSymbolTableRecord
100
AcDbLayerTableRecord
  2
0
 70
     0
 62
     7
  6
CONTINUOUS
370
    -3
390
5
  0
LAYER
  5
3E
330
10
100
AcDbSymbolTableRecord
100
AcDbLayerTableRecord
  2
PROFILE
 70
     0
 62
     9
  6
CONTINUOUS
370
    -3
390
5
  0
LAYER
  5
149
330
10
100
AcDbSymbolTableRecord
100
AcDbLayerTableRecord
  2
Defpoints
 70
     0
 62
     7
  6
CONTINUOUS
290
     0
370
    -3
390
5
  0
ENDTAB
  0
TABLE
  2
STYLE
  5
11
330
0
100
AcDbSymbolTable
 70
     1
  0
STYLE
  5
12
330
11
100
AcDbSymbolTableRecord
100
AcDbTextStyleTableRecord
  2
STANDARD
 70
     0
 40
0.0
 41
1.0
 50
0.0
 71
     0
 42
10.0
  3
romantic.ttf
  4

1001
ACAD
1000
Romantic
1071
      514
  0
ENDTAB
  0
TABLE
  2
VIEW
  5
18
330
0
100
AcDbSymbolTable
 70
     0
  0
ENDTAB
  0
TABLE
  2
UCS
  5
19
330
0
100
AcDbSymbolTable
 70
     0
  0
ENDTAB
  0
TABLE
  2
APPID
  5
1C
330
0
100
AcDbSymbolTable
 70
     1
  0
APPID
  5
13
330
1C
100
AcDbSymbolTableRecord
100
AcDbRegAppTableRecord
  2
ACAD
 70
     0
  0
ENDTAB
  0
TABLE
  2
DIMSTYLE
  5
1D
330
0
100
AcDbSymbolTable
 70
     6
100
AcDbDimStyleTable
 71
     3
340
27
340
37
340
1E
  0
DIMSTYLE
105
1E
102
{ACAD_REACTORS
330
365
330
372
330
37F
330
38C
330
399
330
3AF
330
3BC
330
3CB
330
3D8
330
3E5
330
3F4
330
3F8
330
3FB
330
3FA
330
3F9
330
3F7
330
3F6
330
3F5
330
3F3
330
3F2
102
}
330
1D
100
AcDbSymbolTableRecord
100
AcDbDimStyleTableRecord
  2
STANDARD
 70
     0
 41
1.5
 42
1.0
 43
0.0
 44
1.0
 46
1.0
 73
     0
 74
     0
 77
     1
 78
     8
140
2.5
141
0.0
146
0.8
147
1.0
172
     1
178
     7
271
     3
272
     3
284
     8
285
     8
286
     8
289
     1
340
12
342
1F
343
1F
344
23
  0
DIMSTYLE
105
37
102
{ACAD_REACTORS
330
522
330
550
102
}
330
1D
100
AcDbSymbolTableRecord
100
AcDbDimStyleTableRecord
  2
ARR
 70
     0
 41
2.5
 42
1.0
 43
0.0
 44
1.0
 46
1.0
 73
     0
 77
     1
 78
     8
140
2.5
141
1.0
146
0.8
147
1.0
178
     7
271
     3
272
     3
284
     8
285
     8
286
     8
289
     1
340
12
  0
DIMSTYLE
105
27
102
{ACAD_REACTORS
330
4E0
330
4ED
330
53F
330
54E
330
54F
330
551
102
}
330
1D
100
AcDbSymbolTableRecord
100
AcDbDimStyleTableRecord
  2
R
 70
     0
  3
%%c<>
 41
1.5
 42
1.0
 43
0.0
 44
1.0
 46
1.0
 73
     0
 74
     0
 77
     1
 78
     8
140
2.5
141
0.0
146
0.8
147
1.0
172
     1
178
     7
271
     3
272
     3
284
     8
285
     8
286
     8
289
     1
340
12
341
28
342
1F
  0
ENDTAB
  0
TABLE
  2
BLOCK_RECORD
  5
1
330
0
100
AcDbSymbolTable
 70
    35
  0
BLOCK_RECORD
  5
2
330
1
100
AcDbSymbolTableRecord
100
AcDbBlockTableRecord
  2
*MODEL_SPACE
340
A
  0
BLOCK_RECORD
  5
C
330
1
100
AcDbSymbolTableRecord
100
AcDbBlockTableRecord
  2
*PAPER_SPACE
340
F
  0
BLOCK_RECORD
  5
23
330
1
100
AcDbSymbolTableRecord
100
AcDbBlockTableRecord
  2
_OBLIQUE
340
0
  0
BLOCK_RECORD
  5
1F
330
1
100
AcDbSymbolTableRecord
100
AcDbBlockTableRecord
  2
_ArchTick
340
0
102
{BLKREFS
331
36A
331
36B
331
377
331
378
331
384
331
385
331
39E
331
39F
331
3A9
331
3AA
331
3B4
331
3B5
331
3C3
331
3C4
331
3D0
331
3D1
331
3DD
331
3DE
331
479
331
47A
331
482
331
483
331
48B
331
48C
331
494
331
495
331
4A6
331
4A7
331
4B1
331
4B2
331
4BA
331
4BB
331
4C3
331
4C4
331
4CC
331
4CD
331
4D5
331
4D6
331
4FD
331
4FE
331
50F
331
510
331
518
331
519
331
546
331
547
331
586
331
587
331
58F
331
590
331
5A2
331
5A3
102
}
  0
BLOCK_RECORD
  5
28
330
1
100
AcDbSymbolTableRecord
100
AcDbBlockTableRecord
  2
_DotSmall
340
0
  0
BLOCK_RECORD
  5
366
330
1
100
AcDbSymbolTableRecord
100
AcDbBlockTableRecord
  2
*D7
340
0
  0
BLOCK_RECORD
  5
373
330
1
100
AcDbSymbolTableRecord
100
AcDbBlockTableRecord
  2
*D8
340
0
  0
BLOCK_RECORD
  5
380
330
1
100
AcDbSymbolTableRecord
100
AcDbBlockTableRecord
  2
*D9
340
0
  0
BLOCK_RECORD
  5
38D
330
1
100
AcDbSymbolTableRecord
100
AcDbBlockTableRecord
  2
*D10
340
0
  0
BLOCK_RECORD
  5
39A
330
1
100
AcDbSymbolTableRecord
100
AcDbBlockTableRecord
  2
*D11
340
0
  0
BLOCK_RECORD
  5
3B0
330
1
100
AcDbSymbolTableRecord
100
AcDbBlockTableRecord
  2
*D12
340
0
  0
BLOCK_RECORD
  5
3BD
330
1
100
AcDbSymbolTableRecord
100
AcDbBlockTableRecord
  2
*D13
340
0
  0
BLOCK_RECORD
  5
3CC
330
1
100
AcDbSymbolTableRecord
100
AcDbBlockTableRecord
  2
*D14
340
0
  0
BLOCK_RECORD
  5
3D9
330
1
100
AcDbSymbolTableRecord
100
AcDbBlockTableRecord
  2
*D15
340
0
  0
BLOCK_RECORD
  5
3E6
330
1
100
AcDbSymbolTableRecord
100
AcDbBlockTableRecord
  2
*D16
340
0
  0
BLOCK_RECORD
  5
3FC
330
1
100
AcDbSymbolTableRecord
100
AcDbBlockTableRecord
  2
*D17
340
0
  0
BLOCK_RECORD
  5
408
330
1
100
AcDbSymbolTableRecord
100
AcDbBlockTableRecord
  2
*D18
340
0
  0
BLOCK_RECORD
  5
414
330
1
100
AcDbSymbolTableRecord
100
AcDbBlockTableRecord
  2
*D19
340
0
  0
BLOCK_RECORD
  5
420
330
1
100
AcDbSymbolTableRecord
100
AcDbBlockTableRecord
  2
*D20
340
0
  0
BLOCK_RECORD
  5
42C
330
1
100
AcDbSymbolTableRecord
100
AcDbBlockTableRecord
  2
*D21
340
0
  0
BLOCK_RECORD
  5
438
330
1
100
AcDbSymbolTableRecord
100
AcDbBlockTableRecord
  2
*D22
340
0
  0
BLOCK_RECORD
  5
444
330
1
100
AcDbSymbolTableRecord
100
AcDbBlockTableRecord
  2
*D23
340
0
  0
BLOCK_RECORD
  5
452
330
1
100
AcDbSymbolTableRecord
100
AcDbBlockTableRecord
  2
*D24
340
0
  0
BLOCK_RECORD
  5
45E
330
1
100
AcDbSymbolTableRecord
100
AcDbBlockTableRecord
  2
*D25
340
0
  0
BLOCK_RECORD
  5
46A
330
1
100
AcDbSymbolTableRecord
100
AcDbBlockTableRecord
  2
*D26
340
0
  0
BLOCK_RECORD
  5
4E1
330
1
100
AcDbSymbolTableRecord
100
AcDbBlockTableRecord
  2
*D27
340
0
  0
BLOCK_RECORD
  5
4EE
330
1
100
AcDbSymbolTableRecord
100
AcDbBlockTableRecord
  2
*D28
340
0
  0
BLOCK_RECORD
  5
523
330
1
100
AcDbSymbolTableRecord
100
AcDbBlockTableRecord
  2
*D29
340
0
  0
BLOCK_RECORD
  5
540
330
1
100
AcDbSymbolTableRecord
100
AcDbBlockTableRecord
  2
*D30
340
0
  0
BLOCK_RECORD
  5
552
330
1
100
AcDbSymbolTableRecord
100
AcDbBlockTableRecord
  2
*D31
340
0
  0
BLOCK_RECORD
  5
55E
330
1
100
AcDbSymbolTableRecord
100
AcDbBlockTableRecord
  2
*D32
340
0
  0
BLOCK_RECORD
  5
56A
330
1
100
AcDbSymbolTableRecord
100
AcDbBlockTableRecord
  2
*D33
340
0
  0
BLOCK_RECORD
  5
575
330
1
100
AcDbSymbolTableRecord
100
AcDbBlockTableRecord
  2
*D34
340
0
  0
ENDTAB
  0
ENDSEC
  0
SECTION
  2
BLOCKS
  0
BLOCK
  5
3
330
2
100
AcDbEntity
  8
0
100
AcDbBlockBegin
  2
*MODEL_SPACE
 70
     0
 10
0.0
 20
0.0
 30
0.0
  3
*MODEL_SPACE
  1

  0
ENDBLK
  5
9
330
2
100
AcDbEntity
  8
0
100
AcDbBlockEnd
  0
BLOCK
  5
D
330
C
100
AcDbEntity
 67
     1
  8
0
100
AcDbBlockBegin
  2
*PAPER_SPACE
 70
     0
 10
0.0
 20
0.0
 30
0.0
  3
*PAPER_SPACE
  1

  0
ENDBLK
  5
E
330
C
100
AcDbEntity
 67
     1
  8
0
100
AcDbBlockEnd
  0
BLOCK
  5
24
330
23
100
AcDbEntity
  8
0
100
AcDbBlockBegin
  2
_OBLIQUE
 70
     0
 10
0.0
 20
0.0
 30
0.0
  3
_OBLIQUE
  1
P-400N
  0
LINE
  5
25
330
23
100
AcDbEntity
  8
0
  6
ByBlock
 62
     0
100
AcDbLine
 10
-0.5
 20
-0.5
 30
0.0
 11
0.5
 21
0.5
 31
0.0
  0
ENDBLK
  5
26
330
23
100
AcDbEntity
  8
0
100
AcDbBlockEnd
  0
BLOCK
  5
20
330
1F
100
AcDbEntity
  8
0
100
AcDbBlockBegin
  2
_ArchTick
 70
     0
 10
0.0
 20
0.0
 30
0.0
  3
_ArchTick
  1

  0
LWPOLYLINE
  5
21
330
1F
100
AcDbEntity
  8
0
  6
ByBlock
 62
     0
100
AcDbPolyline
 90
        2
 70
     0
 43
0.15
 10
-0.5
 20
-0.5
 10
0.5
 20
0.5
  0
ENDBLK
  5
22
330
1F
100
AcDbEntity
  8
0
100
AcDbBlockEnd
  0
BLOCK
  5
29
330
28
100
AcDbEntity
  8
0
100
AcDbBlockBegin
  2
_DotSmall
 70
     0
 10
0.0
 20
0.0
 30
0.0
  3
_DotSmall
  1

  0
LWPOLYLINE
  5
2A
330
28
100
AcDbEntity
  8
0
  6
ByBlock
 62
     0
100
AcDbPolyline
 90
        2
 70
     1
 43
0.5
 10
-0.0625
 20
0.0
 42
1.0
 10
0.0625
 20
0.0
 42
1.0
  0
ENDBLK
  5
2B
330
28
100
AcDbEntity
  8
0
100
AcDbBlockEnd
  0
BLOCK
  5
370
330
366
100
AcDbEntity
  8
0
 62
     6
100
AcDbBlockBegin
  2
*D7
 70
     1
 10
0.0
 20
0.0
 30
0.0
  3
*D7
  1

  0
LINE
  5
367
330
366
100
AcDbEntity
  8
PROFILE
 62
     0
370
    -2
100
AcDbLine
 10
135.0000000000028
 20
319.3137303340404
 30
0.0
 11
135.0000000000028
 21
293.5
 31
0.0
  0
LINE
  5
368
330
366
100
AcDbEntity
  8
PROFILE
 62
     0
370
    -2
100
AcDbLine
 10
224.9999999999964
 20
319.3137303340401
 30
0.0
 11
224.9999999999964
 21
293.5
 31
0.0
  0
LINE
  5
369
330
366
100
AcDbEntity
  8
PROFILE
 62
     0
370
    -2
100
AcDbLine
 10
134.0000000000028
 20
294.5
 30
0.0
 11
225.9999999999964
 21
294.5
 31
0.0
  0
INSERT
  5
36A
330
366
100
AcDbEntity
  8
PROFILE
 62
     0
370
    -2
100
AcDbBlockReference
  2
_ArchTick
 10
135.0000000000028
 20
294.5
 30
0.0
 41
1.5
 42
1.5
 43
1.5
 50
180.0
  0
INSERT
  5
36B
330
366
100
AcDbEntity
  8
PROFILE
 62
     0
370
    -2
100
AcDbBlockReference
  2
_ArchTick
 10
224.9999999999964
 20
294.5
 30
0.0
 41
1.5
 42
1.5
 43
1.5
  0
MTEXT
  5
36C
330
366
100
AcDbEntity
  8
PROFILE
 62
     7
100
AcDbMText
 10
179.9999999999996
 20
296.7925295857988
 30
0.0
 40
2.5
 41
0.0
 71
     5
 72
     1
  1
\A1;90
 73
     1
 44
1.0
  0
POINT
  5
36D
330
366
100
AcDbEntity
  8
Defpoints
 62
     0
100
AcDbPoint
 10
135.0000000000028
 20
320.3137303340404
 30
0.0
  0
POINT
  5
36E
330
366
100
AcDbEntity
  8
Defpoints
 62
     0
100
AcDbPoint
 10
224.9999999999964
 20
320.3137303340402
 30
0.0
  0
POINT
  5
36F
330
366
100
AcDbEntity
  8
Defpoints
 62
     0
100
AcDbPoint
 10
224.9999999999964
 20
294.5
 30
0.0
  0
ENDBLK
  5
371
330
366
100
AcDbEntity
  8
0
 62
     6
100
AcDbBlockEnd
  0
BLOCK
  5
37D
330
373
100
AcDbEntity
  8
0
 62
     6
100
AcDbBlockBegin
  2
*D8
 70
     1
 10
0.0
 20
0.0
 30
0.0
  3
*D8
  1

  0
LINE
  5
374
330
373
100
AcDbEntity
  8
PROFILE
 62
     0
370
    -2
100
AcDbLine
 10
279.9999999999999
 20
349.5000000694493
 30
0.0
 11
279.9999999999999
 21
293.5
 31
0.0
  0
LINE
  5
375
330
373
100
AcDbEntity
  8
PROFILE
 62
     0
370
    -2
100
AcDbLine
 10
319.9999999999998
 20
320.0000000694493
 30
0.0
 11
319.9999999999998
 21
293.5
 31
0.0
  0
LINE
  5
376
330
373
100
AcDbEntity
  8
PROFILE
 62
     0
370
    -2
100
AcDbLine
 10
279.0
 20
294.5
 30
0.0
 11
320.9999999999998
 21
294.5
 31
0.0
  0
INSERT
  5
377
330
373
100
AcDbEntity
  8
PROFILE
 62
     0
370
    -2
100
AcDbBlockReference
  2
_ArchTick
 10
279.9999999999999
 20
294.5
 30
0.0
 41
1.5
 42
1.5
 43
1.5
 50
180.0
  0
INSERT
  5
378
330
373
100
AcDbEntity
  8
PROFILE
 62
     0
370
    -2
100
AcDbBlockReference
  2
_ArchTick
 10
319.9999999999998
 20
294.5
 30
0.0
 41
1.5
 42
1.5
 43
1.5
  0
MTEXT
  5
379
330
373
100
AcDbEntity
  8
PROFILE
 62
     7
100
AcDbMText
 10
299.9999999999999
 20
296.7777366863905
 30
0.0
 40
2.5
 41
0.0
 71
     5
 72
     1
  1
\A1;40
 73
     1
 44
1.0
  0
POINT
  5
37A
330
373
100
AcDbEntity
  8
Defpoints
 62
     0
100
AcDbPoint
 10
279.9999999999999
 20
350.5000000694492
 30
0.0
  0
POINT
  5
37B
330
373
100
AcDbEntity
  8
Defpoints
 62
     0
100
AcDbPoint
 10
319.9999999999998
 20
321.0000000694493
 30
0.0
  0
POINT
  5
37C
330
373
100
AcDbEntity
  8
Defpoints
 62
     0
100
AcDbPoint
 10
319.9999999999998
 20
294.5
 30
0.0
  0
ENDBLK
  5
37E
330
373
100
AcDbEntity
  8
0
 62
     6
100
AcDbBlockEnd
  0
BLOCK
  5
38A
330
380
100
AcDbEntity
  8
0
 62
     6
100
AcDbBlockBegin
  2
*D9
 70
     1
 10
0.0
 20
0.0
 30
0.0
  3
*D9
  1

  0
LINE
  5
381
330
380
100
AcDbEntity
  8
PROFILE
 62
     0
370
    -2
100
AcDbLine
 10
319.9999999999998
 20
320.0000000694493
 30
0.0
 11
319.9999999999998
 21
293.5
 31
0.0
  0
LINE
  5
382
330
380
100
AcDbEntity
  8
PROFILE
 62
     0
370
    -2
100
AcDbLine
 10
329.9999999999996
 20
314.0000000694491
 30
0.0
 11
329.9999999999996
 21
293.5
 31
0.0
  0
LINE
  5
383
330
380
100
AcDbEntity
  8
PROFILE
 62
     0
370
    -2
100
AcDbLine
 10
318.9999999999998
 20
294.5
 30
0.0
 11
330.9999999999996
 21
294.5
 31
0.0
  0
INSERT
  5
384
330
380
100
AcDbEntity
  8
PROFILE
 62
     0
370
    -2
100
AcDbBlockReference
  2
_ArchTick
 10
319.9999999999998
 20
294.5
 30
0.0
 41
1.5
 42
1.5
 43
1.5
 50
180.0
  0
INSERT
  5
385
330
380
100
AcDbEntity
  8
PROFILE
 62
     0
370
    -2
100
AcDbBlockReference
  2
_ArchTick
 10
329.9999999999996
 20
294.5
 30
0.0
 41
1.5
 42
1.5
 43
1.5
  0
MTEXT
  5
386
330
380
100
AcDbEntity
  8
PROFILE
 62
     7
100
AcDbMText
 10
324.9999999999996
 20
296.7777366863905
 30
0.0
 40
2.5
 41
0.0
 71
     5
 72
     1
  1
\A1;10
 73
     1
 44
1.0
  0
POINT
  5
387
330
380
100
AcDbEntity
  8
Defpoints
 62
     0
100
AcDbPoint
 10
319.9999999999998
 20
321.0000000694493
 30
0.0
  0
POINT
  5
388
330
380
100
AcDbEntity
  8
Defpoints
 62
     0
100
AcDbPoint
 10
329.9999999999996
 20
315.0000000694491
 30
0.0
  0
POINT
  5
389
330
380
100
AcDbEntity
  8
Defpoints
 62
     0
100
AcDbPoint
 10
329.9999999999996
 20
294.5
 30
0.0
  0
ENDBLK
  5
38B
330
380
100
AcDbEntity
  8
0
 62
     6
100
AcDbBlockEnd
  0
BLOCK
  5
397
330
38D
100
AcDbEntity
  8
0
 62
     6
100
AcDbBlockBegin
  2
*D10
 70
     1
 10
0.0
 20
0.0
 30
0.0
  3
*D10
  1

  0
LINE
  5
3A6
330
38D
100
AcDbEntity
  8
PROFILE
 62
     0
370
    -2
100
AcDbLine
 10
329.9999999999996
 20
314.0000000694491
 30
0.0
 11
329.9999999999996
 21
302.0
 31
0.0
  0
LINE
  5
3A7
330
38D
100
AcDbEntity
  8
PROFILE
 62
     0
370
    -2
100
AcDbLine
 10
339.4999999999997
 20
314.0000000694491
 30
0.0
 11
339.4999999999997
 21
302.0
 31
0.0
  0
LINE
  5
3A8
330
38D
100
AcDbEntity
  8
PROFILE
 62
     0
370
    -2
100
AcDbLine
 10
328.9999999999996
 20
303.0
 30
0.0
 11
340.4999999999997
 21
303.0
 31
0.0
  0
INSERT
  5
3A9
330
38D
100
AcDbEntity
  8
PROFILE
 62
     0
370
    -2
100
AcDbBlockReference
  2
_ArchTick
 10
329.9999999999996
 20
303.0
 30
0.0
 41
1.5
 42
1.5
 43
1.5
 50
180.0
  0
INSERT
  5
3AA
330
38D
100
AcDbEntity
  8
PROFILE
 62
     0
370
    -2
100
AcDbBlockReference
  2
_ArchTick
 10
339.4999999999997
 20
303.0
 30
0.0
 41
1.5
 42
1.5
 43
1.5
  0
MTEXT
  5
3AB
330
38D
100
AcDbEntity
  8
PROFILE
 62
     7
100
AcDbMText
 10
334.7499999999997
 20
305.3128698224852
 30
0.0
 40
2.5
 41
0.0
 71
     5
 72
     1
  1
\A1;9.5
 73
     1
 44
1.0
  0
POINT
  5
3AC
330
38D
100
AcDbEntity
  8
Defpoints
 62
     0
100
AcDbPoint
 10
329.9999999999996
 20
315.0000000694491
 30
0.0
  0
POINT
  5
3AD
330
38D
100
AcDbEntity
  8
Defpoints
 62
     0
100
AcDbPoint
 10
339.4999999999997
 20
315.0000000694491
 30
0.0
  0
POINT
  5
3AE
330
38D
100
AcDbEntity
  8
Defpoints
 62
     0
100
AcDbPoint
 10
339.4999999999997
 20
303.0
 30
0.0
  0
ENDBLK
  5
398
330
38D
100
AcDbEntity
  8
0
 62
     6
100
AcDbBlockEnd
  0
BLOCK
  5
3A4
330
39A
100
AcDbEntity
  8
0
 62
     6
100
AcDbBlockBegin
  2
*D11
 70
     1
 10
0.0
 20
0.0
 30
0.0
  3
*D11
  1

  0
LINE
  5
39B
330
39A
100
AcDbEntity
  8
PROFILE
 62
     0
370
    -2
100
AcDbLine
 10
329.9999999999996
 20
314.0000000694491
 30
0.0
 11
329.9999999999996
 21
293.5
 31
0.0
  0
LINE
  5
39C
330
39A
100
AcDbEntity
  8
PROFILE
 62
     0
370
    -2
100
AcDbLine
 10
440.4999999999995
 20
314.5000000694491
 30
0.0
 11
440.4999999999995
 21
293.5
 31
0.0
  0
LINE
  5
39D
330
39A
100
AcDbEntity
  8
PROFILE
 62
     0
370
    -2
100
AcDbLine
 10
328.9999999999996
 20
294.5
 30
0.0
 11
441.4999999999996
 21
294.5
 31
0.0
  0
INSERT
  5
39E
330
39A
100
AcDbEntity
  8
PROFILE
 62
     0
370
    -2
100
AcDbBlockReference
  2
_ArchTick
 10
329.9999999999996
 20
294.5
 30
0.0
 41
1.5
 42
1.5
 43
1.5
 50
180.0
  0
INSERT
  5
39F
330
39A
100
AcDbEntity
  8
PROFILE
 62
     0
370
    -2
100
AcDbBlockReference
  2
_ArchTick
 10
440.4999999999995
 20
294.5
 30
0.0
 41
1.5
 42
1.5
 43
1.5
  0
MTEXT
  5
3A0
330
39A
100
AcDbEntity
  8
PROFILE
 62
     7
100
AcDbMText
 10
385.2499999999996
 20
296.7999260355029
 30
0.0
 40
2.5
 41
0.0
 71
     5
 72
     1
  1
\A1;110.5
 73
     1
 44
1.0
  0
POINT
  5
3A1
330
39A
100
AcDbEntity
  8
Defpoints
 62
     0
100
AcDbPoint
 10
329.9999999999996
 20
315.0000000694491
 30
0.0
  0
POINT
  5
3A2
330
39A
100
AcDbEntity
  8
Defpoints
 62
     0
100
AcDbPoint
 10
440.4999999999995
 20
315.5000000694491
 30
0.0
  0
POINT
  5
3A3
330
39A
100
AcDbEntity
  8
Defpoints
 62
     0
100
AcDbPoint
 10
440.4999999999995
 20
294.5
 30
0.0
  0
ENDBLK
  5
3A5
330
39A
100
AcDbEntity
  8
0
 62
     6
100
AcDbBlockEnd
  0
BLOCK
  5
3BA
330
3B0
100
AcDbEntity
  8
0
 62
     6
100
AcDbBlockBegin
  2
*D12
 70
     1
 10
0.0
 20
0.0
 30
0.0
  3
*D12
  1

  0
LINE
  5
3B1
330
3B0
100
AcDbEntity
  8
PROFILE
 62
     0
370
    -2
100
AcDbLine
 10
279.9999999999999
 20
349.5000000694493
 30
0.0
 11
279.9999999999999
 21
302.0
 31
0.0
  0
LINE
  5
3B2
330
3B0
100
AcDbEntity
  8
PROFILE
 62
     0
370
    -2
100
AcDbLine
 10
318.5
 20
347.5000000694485
 30
0.0
 11
318.5
 21
302.0
 31
0.0
  0
LINE
  5
3B3
330
3B0
100
AcDbEntity
  8
PROFILE
 62
     0
370
    -2
100
AcDbLine
 10
279.0
 20
303.0
 30
0.0
 11
319.5
 21
303.0
 31
0.0
  0
INSERT
  5
3B4
330
3B0
100
AcDbEntity
  8
PROFILE
 62
     0
370
    -2
100
AcDbBlockReference
  2
_ArchTick
 10
279.9999999999999
 20
303.0
 30
0.0
 41
1.5
 42
1.5
 43
1.5
 50
180.0
  0
INSERT
  5
3B5
330
3B0
100
AcDbEntity
  8
PROFILE
 62
     0
370
    -2
100
AcDbBlockReference
  2
_ArchTick
 10
318.5
 20
303.0
 30
0.0
 41
1.5
 42
1.5
 43
1.5
  0
MTEXT
  5
3B6
330
3B0
100
AcDbEntity
  8
PROFILE
 62
     7
100
AcDbMText
 10
299.25
 20
305.299926035503
 30
0.0
 40
2.5
 41
0.0
 71
     5
 72
     1
  1
\A1;38.5
 73
     1
 44
1.0
  0
POINT
  5
3B7
330
3B0
100
AcDbEntity
  8
Defpoints
 62
     0
100
AcDbPoint
 10
279.9999999999999
 20
350.5000000694492
 30
0.0
  0
POINT
  5
3B8
330
3B0
100
AcDbEntity
  8
Defpoints
 62
     0
100
AcDbPoint
 10
318.5
 20
348.5000000694485
 30
0.0
  0
POINT
  5
3B9
330
3B0
100
AcDbEntity
  8
Defpoints
 62
     0
100
AcDbPoint
 10
318.5
 20
303.0
 30
0.0
  0
ENDBLK
  5
3BB
330
3B0
100
AcDbEntity
  8
0
 62
     6
100
AcDbBlockEnd
  0
BLOCK
  5
3C9
330
3BD
100
AcDbEntity
  8
0
 62
     6
100
AcDbBlockBegin
  2
*D13
 70
     1
 10
0.0
 20
0.0
 30
0.0
  3
*D13
  1

  0
LINE
  5
3BE
330
3BD
100
AcDbEntity
  8
PROFILE
 62
     0
370
    -2
100
AcDbLine
 10
282.9999999999998
 20
358.9999999999998
 30
0.0
 11
282.9999999999998
 21
333.0
 31
0.0
  0
LINE
  5
3BF
330
3BD
100
AcDbEntity
  8
PROFILE
 62
     0
370
    -2
100
AcDbLine
 10
279.9999999999999
 20
349.5000000694493
 30
0.0
 11
279.9999999999999
 21
333.0
 31
0.0
  0
LINE
  5
3C0
330
3BD
100
AcDbEntity
  8
PROFILE
 62
     0
370
    -2
100
AcDbLine
 10
282.9999999999998
 20
334.0
 30
0.0
 11
284.4999999999998
 21
334.0
 31
0.0
  0
LINE
  5
3C1
330
3BD
100
AcDbEntity
  8
PROFILE
 62
     0
370
    -2
100
AcDbLine
 10
279.9999999999999
 20
334.0
 30
0.0
 11
273.5687869822485
 21
334.0
 31
0.0
  0
LINE
  5
3C2
330
3BD
100
AcDbEntity
  8
PROFILE
 62
     0
370
    -2
100
AcDbLine
 10
282.9999999999998
 20
334.0
 30
0.0
 11
279.9999999999999
 21
334.0
 31
0.0
  0
INSERT
  5
3C3
330
3BD
100
AcDbEntity
  8
PROFILE
 62
     0
370
    -2
100
AcDbBlockReference
  2
_ArchTick
 10
282.9999999999998
 20
334.0
 30
0.0
 41
1.5
 42
1.5
 43
1.5
 50
180.0
  0
INSERT
  5
3C4
330
3BD
100
AcDbEntity
  8
PROFILE
 62
     0
370
    -2
100
AcDbBlockReference
  2
_ArchTick
 10
279.9999999999999
 20
334.0
 30
0.0
 41
1.5
 42
1.5
 43
1.5
  0
MTEXT
  5
3C5
330
3BD
100
AcDbEntity
  8
PROFILE
 62
     7
100
AcDbMText
 10
275.2843934911242
 20
336.2758875739645
 30
0.0
 40
2.5
 41
0.0
 71
     5
 72
     1
  1
\A1;3
 73
     1
 44
1.0
  0
POINT
  5
3C6
330
3BD
100
AcDbEntity
  8
Defpoints
 62
     0
100
AcDbPoint
 10
282.9999999999998
 20
359.9999999999998
 30
0.0
  0
POINT
  5
3C7
330
3BD
100
AcDbEntity
  8
Defpoints
 62
     0
100
AcDbPoint
 10
279.9999999999999
 20
350.5000000694492
 30
0.0
  0
POINT
  5
3C8
330
3BD
100
AcDbEntity
  8
Defpoints
 62
     0
100
AcDbPoint
 10
279.9999999999999
 20
334.0
 30
0.0
  0
ENDBLK
  5
3CA
330
3BD
100
AcDbEntity
  8
0
 62
     6
100
AcDbBlockEnd
  0
BLOCK
  5
3D6
330
3CC
100
AcDbEntity
  8
0
 62
     6
100
AcDbBlockBegin
  2
*D14
 70
     1
 10
0.0
 20
0.0
 30
0.0
  3
*D14
  1

  0
LINE
  5
3CD
330
3CC
100
AcDbEntity
  8
PROFILE
 62
     0
370
    -2
100
AcDbLine
 10
282.9999999999998
 20
358.9999999999998
 30
0.0
 11
282.9999999999998
 21
333.0
 31
0.0
  0
LINE
  5
3CE
330
3CC
100
AcDbEntity
  8
PROFILE
 62
     0
370
    -2
100
AcDbLine
 10
312.9999999999998
 20
358.9999999999998
 30
0.0
 11
312.9999999999998
 21
333.0
 31
0.0
  0
LINE
  5
3CF
330
3CC
100
AcDbEntity
  8
PROFILE
 62
     0
370
    -2
100
AcDbLine
 10
281.9999999999998
 20
334.0
 30
0.0
 11
313.9999999999998
 21
334.0
 31
0.0
  0
INSERT
  5
3D0
330
3CC
100
AcDbEntity
  8
PROFILE
 62
     0
370
    -2
100
AcDbBlockReference
  2
_ArchTick
 10
282.9999999999998
 20
334.0
 30
0.0
 41
1.5
 42
1.5
 43
1.5
 50
180.0
  0
INSERT
  5
3D1
330
3CC
100
AcDbEntity
  8
PROFILE
 62
     0
370
    -2
100
AcDbBlockReference
  2
_ArchTick
 10
312.9999999999998
 20
334.0
 30
0.0
 41
1.5
 42
1.5
 43
1.5
  0
MTEXT
  5
3D2
330
3CC
100
AcDbEntity
  8
PROFILE
 62
     7
100
AcDbMText
 10
297.9999999999998
 20
336.2777366863905
 30
0.0
 40
2.5
 41
0.0
 71
     5
 72
     1
  1
\A1;30
 73
     1
 44
1.0
  0
POINT
  5
3D3
330
3CC
100
AcDbEntity
  8
Defpoints
 62
     0
100
AcDbPoint
 10
282.9999999999998
 20
359.9999999999998
 30
0.0
  0
POINT
  5
3D4
330
3CC
100
AcDbEntity
  8
Defpoints
 62
     0
100
AcDbPoint
 10
312.9999999999998
 20
359.9999999999998
 30
0.0
  0
POINT
  5
3D5
330
3CC
100
AcDbEntity
  8
Defpoints
 62
     0
100
AcDbPoint
 10
312.9999999999998
 20
334.0
 30
0.0
  0
ENDBLK
  5
3D7
330
3CC
100
AcDbEntity
  8
0
 62
     6
100
AcDbBlockEnd
  0
BLOCK
  5
3E3
330
3D9
100
AcDbEntity
  8
0
 62
     6
100
AcDbBlockBegin
  2
*D15
 70
     1
 10
0.0
 20
0.0
 30
0.0
  3
*D15
  1

  0
LINE
  5
3DA
330
3D9
100
AcDbEntity
  8
PROFILE
 62
     0
370
    -2
100
AcDbLine
 10
169.000000000002
 20
359.000000000008
 30
0.0
 11
169.000000000002
 21
301.0
 31
0.0
  0
LINE
  5
3DB
330
3D9
100
AcDbEntity
  8
PROFILE
 62
     0
370
    -2
100
AcDbLine
 10
193.500000000002
 20
356.000000000008
 30
0.0
 11
193.500000000002
 21
301.0
 31
0.0
  0
LINE
  5
3DC
330
3D9
100
AcDbEntity
  8
PROFILE
 62
     0
370
    -2
100
AcDbLine
 10
168.000000000002
 20
302.0
 30
0.0
 11
194.500000000002
 21
302.0
 31
0.0
  0
INSERT
  5
3DD
330
3D9
100
AcDbEntity
  8
PROFILE
 62
     0
370
    -2
100
AcDbBlockReference
  2
_ArchTick
 10
169.000000000002
 20
302.0
 30
0.0
 41
1.5
 42
1.5
 43
1.5
 50
180.0
  0
INSERT
  5
3DE
330
3D9
100
AcDbEntity
  8
PROFILE
 62
     0
370
    -2
100
AcDbBlockReference
  2
_ArchTick
 10
193.500000000002
 20
302.0
 30
0.0
 41
1.5
 42
1.5
 43
1.5
  0
MTEXT
  5
3DF
330
3D9
100
AcDbEntity
  8
PROFILE
 62
     7
100
AcDbMText
 10
181.250000000002
 20
304.2999260355029
 30
0.0
 40
2.5
 41
0.0
 71
     5
 72
     1
  1
\A1;24.5
 73
     1
 44
1.0
  0
POINT
  5
3E0
330
3D9
100
AcDbEntity
  8
Defpoints
 62
     0
100
AcDbPoint
 10
169.000000000002
 20
360.000000000008
 30
0.0
  0
POINT
  5
3E1
330
3D9
100
AcDbEntity
  8
Defpoints
 62
     0
100
AcDbPoint
 10
193.500000000002
 20
357.000000000008
 30
0.0
  0
POINT
  5
3E2
330
3D9
100
AcDbEntity
  8
Defpoints
 62
     0
100
AcDbPoint
 10
193.500000000002
 20
302.0
 30
0.0
  0
ENDBLK
  5
3E4
330
3D9
100
AcDbEntity
  8
0
 62
     6
100
AcDbBlockEnd
  0
BLOCK
  5
3F0
330
3E6
100
AcDbEntity
  8
0
 62
     6
100
AcDbBlockBegin
  2
*D16
 70
     1
 10
0.0
 20
0.0
 30
0.0
  3
*D16
  1

  0
LINE
  5
515
330
3E6
100
AcDbEntity
  8
PROFILE
 62
     0
370
    -2
100
AcDbLine
 10
194.500000000002
 20
363.000000000008
 30
0.0
 11
240.0
 21
363.000000000008
 31
0.0
  0
LINE
  5
516
330
3E6
100
AcDbEntity
  8
PROFILE
 62
     0
370
    -2
100
AcDbLine
 10
194.500000000002
 20
357.000000000008
 30
0.0
 11
240.0
 21
357.000000000008
 31
0.0
  0
LINE
  5
517
330
3E6
100
AcDbEntity
  8
PROFILE
 62
     0
370
    -2
100
AcDbLine
 10
239.0
 20
364.000000000008
 30
0.0
 11
239.0
 21
356.000000000008
 31
0.0
  0
INSERT
  5
518
330
3E6
100
AcDbEntity
  8
PROFILE
 62
     0
370
    -2
100
AcDbBlockReference
  2
_ArchTick
 10
239.0
 20
363.000000000008
 30
0.0
 41
1.5
 42
1.5
 43
1.5
 50
90.0
  0
INSERT
  5
519
330
3E6
100
AcDbEntity
  8
PROFILE
 62
     0
370
    -2
100
AcDbBlockReference
  2
_ArchTick
 10
239.0
 20
357.000000000008
 30
0.0
 41
1.5
 42
1.5
 43
1.5
 50
270.0
  0
MTEXT
  5
51A
330
3E6
100
AcDbEntity
  8
PROFILE
 62
     7
100
AcDbMText
 10
236.7130177514793
 20
360.0000000000081
 30
0.0
 40
2.5
 41
0.0
 71
     5
 72
     1
  1
\A1;6
 11
0.0000000000000001
 21
1.0
 31
0.0
 73
     1
 44
1.0
  0
POINT
  5
51B
330
3E6
100
AcDbEntity
  8
Defpoints
 62
     0
100
AcDbPoint
 10
193.500000000002
 20
363.000000000008
 30
0.0
  0
POINT
  5
51C
330
3E6
100
AcDbEntity
  8
Defpoints
 62
     0
100
AcDbPoint
 10
193.500000000002
 20
357.000000000008
 30
0.0
  0
POINT
  5
51D
330
3E6
100
AcDbEntity
  8
Defpoints
 62
     0
100
AcDbPoint
 10
239.0
 20
357.000000000008
 30
0.0
  0
ENDBLK
  5
3F1
330
3E6
100
AcDbEntity
  8
0
 62
     6
100
AcDbBlockEnd
  0
BLOCK
  5
406
330
3FC
100
AcDbEntity
  8
0
 62
     6
100
AcDbBlockBegin
  2
*D17
 70
     1
 10
0.0
 20
0.0
 30
0.0
  3
*D17
  1

  0
LINE
  5
476
330
3FC
100
AcDbEntity
  8
PROFILE
 62
     0
370
    -2
100
AcDbLine
 10
135.0000000000029
 20
139.3137303340324
 30
0.0
 11
135.0000000000029
 21
113.499999999992
 31
0.0
  0
LINE
  5
477
330
3FC
100
AcDbEntity
  8
PROFILE
 62
     0
370
    -2
100
AcDbLine
 10
224.9999999999965
 20
139.3137303340321
 30
0.0
 11
224.9999999999965
 21
113.499999999992
 31
0.0
  0
LINE
  5
478
330
3FC
100
AcDbEntity
  8
PROFILE
 62
     0
370
    -2
100
AcDbLine
 10
134.0000000000029
 20
114.499999999992
 30
0.0
 11
225.9999999999966
 21
114.499999999992
 31
0.0
  0
INSERT
  5
479
330
3FC
100
AcDbEntity
  8
PROFILE
 62
     0
370
    -2
100
AcDbBlockReference
  2
_ArchTick
 10
135.0000000000029
 20
114.499999999992
 30
0.0
 41
1.5
 42
1.5
 43
1.5
 50
180.0
  0
INSERT
  5
47A
330
3FC
100
AcDbEntity
  8
PROFILE
 62
     0
370
    -2
100
AcDbBlockReference
  2
_ArchTick
 10
224.9999999999965
 20
114.499999999992
 30
0.0
 41
1.5
 42
1.5
 43
1.5
  0
MTEXT
  5
47B
330
3FC
100
AcDbEntity
  8
PROFILE
 62
     7
100
AcDbMText
 10
179.9999999999997
 20
116.7925295857908
 30
0.0
 40
2.5
 41
0.0
 71
     5
 72
     1
  1
\A1;90
 73
     1
 44
1.0
  0
POINT
  5
47C
330
3FC
100
AcDbEntity
  8
Defpoints
 62
     0
100
AcDbPoint
 10
135.0000000000029
 20
140.3137303340324
 30
0.0
  0
POINT
  5
47D
330
3FC
100
AcDbEntity
  8
Defpoints
 62
     0
100
AcDbPoint
 10
224.9999999999965
 20
140.3137303340321
 30
0.0
  0
POINT
  5
47E
330
3FC
100
AcDbEntity
  8
Defpoints
 62
     0
100
AcDbPoint
 10
224.9999999999965
 20
114.499999999992
 30
0.0
  0
ENDBLK
  5
407
330
3FC
100
AcDbEntity
  8
0
 62
     6
100
AcDbBlockEnd
  0
BLOCK
  5
412
330
408
100
AcDbEntity
  8
0
 62
     6
100
AcDbBlockBegin
  2
*D18
 70
     1
 10
0.0
 20
0.0
 30
0.0
  3
*D18
  1

  0
LINE
  5
47F
330
408
100
AcDbEntity
  8
PROFILE
 62
     0
370
    -2
100
AcDbLine
 10
280.0000000000001
 20
169.5000000694412
 30
0.0
 11
280.0000000000001
 21
113.499999999992
 31
0.0
  0
LINE
  5
480
330
408
100
AcDbEntity
  8
PROFILE
 62
     0
370
    -2
100
AcDbLine
 10
319.9999999999999
 20
140.0000000694413
 30
0.0
 11
319.9999999999999
 21
113.499999999992
 31
0.0
  0
LINE
  5
481
330
408
100
AcDbEntity
  8
PROFILE
 62
     0
370
    -2
100
AcDbLine
 10
279.0
 20
114.499999999992
 30
0.0
 11
320.9999999999999
 21
114.499999999992
 31
0.0
  0
INSERT
  5
482
330
408
100
AcDbEntity
  8
PROFILE
 62
     0
370
    -2
100
AcDbBlockReference
  2
_ArchTick
 10
280.0000000000001
 20
114.499999999992
 30
0.0
 41
1.5
 42
1.5
 43
1.5
 50
180.0
  0
INSERT
  5
483
330
408
100
AcDbEntity
  8
PROFILE
 62
     0
370
    -2
100
AcDbBlockReference
  2
_ArchTick
 10
319.9999999999999
 20
114.499999999992
 30
0.0
 41
1.5
 42
1.5
 43
1.5
  0
MTEXT
  5
484
330
408
100
AcDbEntity
  8
PROFILE
 62
     7
100
AcDbMText
 10
300.0
 20
116.7777366863825
 30
0.0
 40
2.5
 41
0.0
 71
     5
 72
     1
  1
\A1;40
 73
     1
 44
1.0
  0
POINT
  5
485
330
408
100
AcDbEntity
  8
Defpoints
 62
     0
100
AcDbPoint
 10
280.0000000000001
 20
170.5000000694412
 30
0.0
  0
POINT
  5
486
330
408
100
AcDbEntity
  8
Defpoints
 62
     0
100
AcDbPoint
 10
319.9999999999999
 20
141.0000000694413
 30
0.0
  0
POINT
  5
487
330
408
100
AcDbEntity
  8
Defpoints
 62
     0
100
AcDbPoint
 10
319.9999999999999
 20
114.499999999992
 30
0.0
  0
ENDBLK
  5
413
330
408
100
AcDbEntity
  8
0
 62
     6
100
AcDbBlockEnd
  0
BLOCK
  5
41E
330
414
100
AcDbEntity
  8
0
 62
     6
100
AcDbBlockBegin
  2
*D19
 70
     1
 10
0.0
 20
0.0
 30
0.0
  3
*D19
  1

  0
LINE
  5
488
330
414
100
AcDbEntity
  8
PROFILE
 62
     0
370
    -2
100
AcDbLine
 10
319.9999999999999
 20
140.0000000694413
 30
0.0
 11
319.9999999999999
 21
113.499999999992
 31
0.0
  0
LINE
  5
489
330
414
100
AcDbEntity
  8
PROFILE
 62
     0
370
    -2
100
AcDbLine
 10
329.9999999999997
 20
134.0000000694411
 30
0.0
 11
329.9999999999997
 21
113.499999999992
 31
0.0
  0
LINE
  5
48A
330
414
100
AcDbEntity
  8
PROFILE
 62
     0
370
    -2
100
AcDbLine
 10
318.9999999999999
 20
114.499999999992
 30
0.0
 11
330.9999999999997
 21
114.499999999992
 31
0.0
  0
INSERT
  5
48B
330
414
100
AcDbEntity
  8
PROFILE
 62
     0
370
    -2
100
AcDbBlockReference
  2
_ArchTick
 10
319.9999999999999
 20
114.499999999992
 30
0.0
 41
1.5
 42
1.5
 43
1.5
 50
180.0
  0
INSERT
  5
48C
330
414
100
AcDbEntity
  8
PROFILE
 62
     0
370
    -2
100
AcDbBlockReference
  2
_ArchTick
 10
329.9999999999997
 20
114.499999999992
 30
0.0
 41
1.5
 42
1.5
 43
1.5
  0
MTEXT
  5
48D
330
414
100
AcDbEntity
  8
PROFILE
 62
     7
100
AcDbMText
 10
324.9999999999998
 20
116.7777366863825
 30
0.0
 40
2.5
 41
0.0
 71
     5
 72
     1
  1
\A1;10
 73
     1
 44
1.0
  0
POINT
  5
48E
330
414
100
AcDbEntity
  8
Defpoints
 62
     0
100
AcDbPoint
 10
319.9999999999999
 20
141.0000000694413
 30
0.0
  0
POINT
  5
48F
330
414
100
AcDbEntity
  8
Defpoints
 62
     0
100
AcDbPoint
 10
329.9999999999997
 20
135.0000000694411
 30
0.0
  0
POINT
  5
490
330
414
100
AcDbEntity
  8
Defpoints
 62
     0
100
AcDbPoint
 10
329.9999999999997
 20
114.499999999992
 30
0.0
  0
ENDBLK
  5
41F
330
414
100
AcDbEntity
  8
0
 62
     6
100
AcDbBlockEnd
  0
BLOCK
  5
42A
330
420
100
AcDbEntity
  8
0
 62
     6
100
AcDbBlockBegin
  2
*D20
 70
     1
 10
0.0
 20
0.0
 30
0.0
  3
*D20
  1

  0
LINE
  5
491
330
420
100
AcDbEntity
  8
PROFILE
 62
     0
370
    -2
100
AcDbLine
 10
329.9999999999997
 20
134.0000000694411
 30
0.0
 11
329.9999999999997
 21
121.999999999992
 31
0.0
  0
LINE
  5
492
330
420
100
AcDbEntity
  8
PROFILE
 62
     0
370
    -2
100
AcDbLine
 10
339.4999999999998
 20
134.0000000694411
 30
0.0
 11
339.4999999999998
 21
121.999999999992
 31
0.0
  0
LINE
  5
493
330
420
100
AcDbEntity
  8
PROFILE
 62
     0
370
    -2
100
AcDbLine
 10
328.9999999999997
 20
122.999999999992
 30
0.0
 11
340.4999999999998
 21
122.999999999992
 31
0.0
  0
INSERT
  5
494
330
420
100
AcDbEntity
  8
PROFILE
 62
     0
370
    -2
100
AcDbBlockReference
  2
_ArchTick
 10
329.9999999999997
 20
122.999999999992
 30
0.0
 41
1.5
 42
1.5
 43
1.5
 50
180.0
  0
INSERT
  5
495
330
420
100
AcDbEntity
  8
PROFILE
 62
     0
370
    -2
100
AcDbBlockReference
  2
_ArchTick
 10
339.4999999999998
 20
122.999999999992
 30
0.0
 41
1.5
 42
1.5
 43
1.5
  0
MTEXT
  5
496
330
420
100
AcDbEntity
  8
PROFILE
 62
     7
100
AcDbMText
 10
334.7499999999998
 20
125.3128698224772
 30
0.0
 40
2.5
 41
0.0
 71
     5
 72
     1
  1
\A1;9.5
 73
     1
 44
1.0
  0
POINT
  5
497
330
420
100
AcDbEntity
  8
Defpoints
 62
     0
100
AcDbPoint
 10
329.9999999999997
 20
135.0000000694411
 30
0.0
  0
POINT
  5
498
330
420
100
AcDbEntity
  8
Defpoints
 62
     0
100
AcDbPoint
 10
339.4999999999998
 20
135.0000000694411
 30
0.0
  0
POINT
  5
499
330
420
100
AcDbEntity
  8
Defpoints
 62
     0
100
AcDbPoint
 10
339.4999999999998
 20
122.999999999992
 30
0.0
  0
ENDBLK
  5
42B
330
420
100
AcDbEntity
  8
0
 62
     6
100
AcDbBlockEnd
  0
BLOCK
  5
436
330
42C
100
AcDbEntity
  8
0
 62
     6
100
AcDbBlockBegin
  2
*D21
 70
     1
 10
0.0
 20
0.0
 30
0.0
  3
*D21
  1

  0
LINE
  5
4D2
330
42C
100
AcDbEntity
  8
PROFILE
 62
     0
370
    -2
100
AcDbLine
 10
329.9999999999997
 20
134.0000000694411
 30
0.0
 11
329.9999999999997
 21
113.499999999992
 31
0.0
  0
LINE
  5
4D3
330
42C
100
AcDbEntity
  8
PROFILE
 62
     0
370
    -2
100
AcDbLine
 10
465.9999999999996
 20
134.5000000694412
 30
0.0
 11
465.9999999999996
 21
113.499999999992
 31
0.0
  0
LINE
  5
4D4
330
42C
100
AcDbEntity
  8
PROFILE
 62
     0
370
    -2
100
AcDbLine
 10
328.9999999999997
 20
114.499999999992
 30
0.0
 11
466.9999999999996
 21
114.499999999992
 31
0.0
  0
INSERT
  5
4D5
330
42C
100
AcDbEntity
  8
PROFILE
 62
     0
370
    -2
100
AcDbBlockReference
  2
_ArchTick
 10
329.9999999999997
 20
114.499999999992
 30
0.0
 41
1.5
 42
1.5
 43
1.5
 50
180.0
  0
INSERT
  5
4D6
330
42C
100
AcDbEntity
  8
PROFILE
 62
     0
370
    -2
100
AcDbBlockReference
  2
_ArchTick
 10
465.9999999999996
 20
114.499999999992
 30
0.0
 41
1.5
 42
1.5
 43
1.5
  0
MTEXT
  5
4D7
330
42C
100
AcDbEntity
  8
PROFILE
 62
     7
100
AcDbMText
 10
397.9999999999997
 20
116.7869822485127
 30
0.0
 40
2.5
 41
0.0
 71
     5
 72
     1
  1
\A1;136
 73
     1
 44
1.0
  0
POINT
  5
4D8
330
42C
100
AcDbEntity
  8
Defpoints
 62
     0
100
AcDbPoint
 10
329.9999999999997
 20
135.0000000694411
 30
0.0
  0
POINT
  5
4D9
330
42C
100
AcDbEntity
  8
Defpoints
 62
     0
100
AcDbPoint
 10
465.9999999999996
 20
135.5000000694412
 30
0.0
  0
POINT
  5
4DA
330
42C
100
AcDbEntity
  8
Defpoints
 62
     0
100
AcDbPoint
 10
465.9999999999996
 20
114.499999999992
 30
0.0
  0
ENDBLK
  5
437
330
42C
100
AcDbEntity
  8
0
 62
     6
100
AcDbBlockEnd
  0
BLOCK
  5
442
330
438
100
AcDbEntity
  8
0
 62
     6
100
AcDbBlockBegin
  2
*D22
 70
     1
 10
0.0
 20
0.0
 30
0.0
  3
*D22
  1

  0
LINE
  5
4A3
330
438
100
AcDbEntity
  8
PROFILE
 62
     0
370
    -2
100
AcDbLine
 10
280.0000000000001
 20
169.5000000694412
 30
0.0
 11
280.0000000000001
 21
121.999999999992
 31
0.0
  0
LINE
  5
4A4
330
438
100
AcDbEntity
  8
PROFILE
 62
     0
370
    -2
100
AcDbLine
 10
318.5000000000001
 20
167.5000000694405
 30
0.0
 11
318.5000000000001
 21
121.999999999992
 31
0.0
  0
LINE
  5
4A5
330
438
100
AcDbEntity
  8
PROFILE
 62
     0
370
    -2
100
AcDbLine
 10
279.0
 20
122.999999999992
 30
0.0
 11
319.5000000000001
 21
122.999999999992
 31
0.0
  0
INSERT
  5
4A6
330
438
100
AcDbEntity
  8
PROFILE
 62
     0
370
    -2
100
AcDbBlockReference
  2
_ArchTick
 10
280.0000000000001
 20
122.999999999992
 30
0.0
 41
1.5
 42
1.5
 43
1.5
 50
180.0
  0
INSERT
  5
4A7
330
438
100
AcDbEntity
  8
PROFILE
 62
     0
370
    -2
100
AcDbBlockReference
  2
_ArchTick
 10
318.5000000000001
 20
122.999999999992
 30
0.0
 41
1.5
 42
1.5
 43
1.5
  0
MTEXT
  5
4A8
330
438
100
AcDbEntity
  8
PROFILE
 62
     7
100
AcDbMText
 10
299.2500000000001
 20
125.2999260354949
 30
0.0
 40
2.5
 41
0.0
 71
     5
 72
     1
  1
\A1;38.5
 73
     1
 44
1.0
  0
POINT
  5
4A9
330
438
100
AcDbEntity
  8
Defpoints
 62
     0
100
AcDbPoint
 10
280.0000000000001
 20
170.5000000694412
 30
0.0
  0
POINT
  5
4AA
330
438
100
AcDbEntity
  8
Defpoints
 62
     0
100
AcDbPoint
 10
318.5000000000001
 20
168.5000000694405
 30
0.0
  0
POINT
  5
4AB
330
438
100
AcDbEntity
  8
Defpoints
 62
     0
100
AcDbPoint
 10
318.5000000000001
 20
122.999999999992
 30
0.0
  0
ENDBLK
  5
443
330
438
100
AcDbEntity
  8
0
 62
     6
100
AcDbBlockEnd
  0
BLOCK
  5
450
330
444
100
AcDbEntity
  8
0
 62
     6
100
AcDbBlockBegin
  2
*D23
 70
     1
 10
0.0
 20
0.0
 30
0.0
  3
*D23
  1

  0
LINE
  5
4AC
330
444
100
AcDbEntity
  8
PROFILE
 62
     0
370
    -2
100
AcDbLine
 10
282.9999999999999
 20
178.9999999999917
 30
0.0
 11
282.9999999999999
 21
152.999999999992
 31
0.0
  0
LINE
  5
4AD
330
444
100
AcDbEntity
  8
PROFILE
 62
     0
370
    -2
100
AcDbLine
 10
280.0000000000001
 20
169.5000000694412
 30
0.0
 11
280.0000000000001
 21
152.999999999992
 31
0.0
  0
LINE
  5
4AE
330
444
100
AcDbEntity
  8
PROFILE
 62
     0
370
    -2
100
AcDbLine
 10
282.9999999999999
 20
153.999999999992
 30
0.0
 11
284.4999999999999
 21
153.999999999992
 31
0.0
  0
LINE
  5
4AF
330
444
100
AcDbEntity
  8
PROFILE
 62
     0
370
    -2
100
AcDbLine
 10
280.0000000000001
 20
153.999999999992
 30
0.0
 11
273.5687869822486
 21
153.999999999992
 31
0.0
  0
LINE
  5
4B0
330
444
100
AcDbEntity
  8
PROFILE
 62
     0
370
    -2
100
AcDbLine
 10
282.9999999999999
 20
153.999999999992
 30
0.0
 11
280.0000000000001
 21
153.999999999992
 31
0.0
  0
INSERT
  5
4B1
330
444
100
AcDbEntity
  8
PROFILE
 62
     0
370
    -2
100
AcDbBlockReference
  2
_ArchTick
 10
282.9999999999999
 20
153.999999999992
 30
0.0
 41
1.5
 42
1.5
 43
1.5
 50
180.0
  0
INSERT
  5
4B2
330
444
100
AcDbEntity
  8
PROFILE
 62
     0
370
    -2
100
AcDbBlockReference
  2
_ArchTick
 10
280.0000000000001
 20
153.999999999992
 30
0.0
 41
1.5
 42
1.5
 43
1.5
  0
MTEXT
  5
4B3
330
444
100
AcDbEntity
  8
PROFILE
 62
     7
100
AcDbMText
 10
275.2843934911243
 20
156.2758875739565
 30
0.0
 40
2.5
 41
0.0
 71
     5
 72
     1
  1
\A1;3
 73
     1
 44
1.0
  0
POINT
  5
4B4
330
444
100
AcDbEntity
  8
Defpoints
 62
     0
100
AcDbPoint
 10
282.9999999999999
 20
179.9999999999917
 30
0.0
  0
POINT
  5
4B5
330
444
100
AcDbEntity
  8
Defpoints
 62
     0
100
AcDbPoint
 10
280.0000000000001
 20
170.5000000694412
 30
0.0
  0
POINT
  5
4B6
330
444
100
AcDbEntity
  8
Defpoints
 62
     0
100
AcDbPoint
 10
280.0000000000001
 20
153.999999999992
 30
0.0
  0
ENDBLK
  5
451
330
444
100
AcDbEntity
  8
0
 62
     6
100
AcDbBlockEnd
  0
BLOCK
  5
45C
330
452
100
AcDbEntity
  8
0
 62
     6
100
AcDbBlockBegin
  2
*D24
 70
     1
 10
0.0
 20
0.0
 30
0.0
  3
*D24
  1

  0
LINE
  5
4B7
330
452
100
AcDbEntity
  8
PROFILE
 62
     0
370
    -2
100
AcDbLine
 10
282.9999999999999
 20
178.9999999999917
 30
0.0
 11
282.9999999999999
 21
152.999999999992
 31
0.0
  0
LINE
  5
4B8
330
452
100
AcDbEntity
  8
PROFILE
 62
     0
370
    -2
100
AcDbLine
 10
312.9999999999999
 20
178.9999999999917
 30
0.0
 11
312.9999999999999
 21
152.999999999992
 31
0.0
  0
LINE
  5
4B9
330
452
100
AcDbEntity
  8
PROFILE
 62
     0
370
    -2
100
AcDbLine
 10
281.9999999999999
 20
153.999999999992
 30
0.0
 11
313.9999999999999
 21
153.999999999992
 31
0.0
  0
INSERT
  5
4BA
330
452
100
AcDbEntity
  8
PROFILE
 62
     0
370
    -2
100
AcDbBlockReference
  2
_ArchTick
 10
282.9999999999999
 20
153.999999999992
 30
0.0
 41
1.5
 42
1.5
 43
1.5
 50
180.0
  0
INSERT
  5
4BB
330
452
100
AcDbEntity
  8
PROFILE
 62
     0
370
    -2
100
AcDbBlockReference
  2
_ArchTick
 10
312.9999999999999
 20
153.999999999992
 30
0.0
 41
1.5
 42
1.5
 43
1.5
  0
MTEXT
  5
4BC
330
452
100
AcDbEntity
  8
PROFILE
 62
     7
100
AcDbMText
 10
297.9999999999999
 20
156.2777366863825
 30
0.0
 40
2.5
 41
0.0
 71
     5
 72
     1
  1
\A1;30
 73
     1
 44
1.0
  0
POINT
  5
4BD
330
452
100
AcDbEntity
  8
Defpoints
 62
     0
100
AcDbPoint
 10
282.9999999999999
 20
179.9999999999917
 30
0.0
  0
POINT
  5
4BE
330
452
100
AcDbEntity
  8
Defpoints
 62
     0
100
AcDbPoint
 10
312.9999999999999
 20
179.9999999999917
 30
0.0
  0
POINT
  5
4BF
330
452
100
AcDbEntity
  8
Defpoints
 62
     0
100
AcDbPoint
 10
312.9999999999999
 20
153.999999999992
 30
0.0
  0
ENDBLK
  5
45D
330
452
100
AcDbEntity
  8
0
 62
     6
100
AcDbBlockEnd
  0
BLOCK
  5
468
330
45E
100
AcDbEntity
  8
0
 62
     6
100
AcDbBlockBegin
  2
*D25
 70
     1
 10
0.0
 20
0.0
 30
0.0
  3
*D25
  1

  0
LINE
  5
4C0
330
45E
100
AcDbEntity
  8
PROFILE
 62
     0
370
    -2
100
AcDbLine
 10
169.0000000000021
 20
179.0
 30
0.0
 11
169.0000000000021
 21
120.999999999992
 31
0.0
  0
LINE
  5
4C1
330
45E
100
AcDbEntity
  8
PROFILE
 62
     0
370
    -2
100
AcDbLine
 10
193.5000000000021
 20
176.0
 30
0.0
 11
193.5000000000021
 21
120.999999999992
 31
0.0
  0
LINE
  5
4C2
330
45E
100
AcDbEntity
  8
PROFILE
 62
     0
370
    -2
100
AcDbLine
 10
168.0000000000021
 20
121.999999999992
 30
0.0
 11
194.5000000000021
 21
121.999999999992
 31
0.0
  0
INSERT
  5
4C3
330
45E
100
AcDbEntity
  8
PROFILE
 62
     0
370
    -2
100
AcDbBlockReference
  2
_ArchTick
 10
169.0000000000021
 20
121.999999999992
 30
0.0
 41
1.5
 42
1.5
 43
1.5
 50
180.0
  0
INSERT
  5
4C4
330
45E
100
AcDbEntity
  8
PROFILE
 62
     0
370
    -2
100
AcDbBlockReference
  2
_ArchTick
 10
193.5000000000021
 20
121.999999999992
 30
0.0
 41
1.5
 42
1.5
 43
1.5
  0
MTEXT
  5
4C5
330
45E
100
AcDbEntity
  8
PROFILE
 62
     7
100
AcDbMText
 10
181.2500000000021
 20
124.2999260354949
 30
0.0
 40
2.5
 41
0.0
 71
     5
 72
     1
  1
\A1;24.5
 73
     1
 44
1.0
  0
POINT
  5
4C6
330
45E
100
AcDbEntity
  8
Defpoints
 62
     0
100
AcDbPoint
 10
169.0000000000021
 20
180.0
 30
0.0
  0
POINT
  5
4C7
330
45E
100
AcDbEntity
  8
Defpoints
 62
     0
100
AcDbPoint
 10
193.5000000000021
 20
177.0
 30
0.0
  0
POINT
  5
4C8
330
45E
100
AcDbEntity
  8
Defpoints
 62
     0
100
AcDbPoint
 10
193.5000000000021
 20
121.999999999992
 30
0.0
  0
ENDBLK
  5
469
330
45E
100
AcDbEntity
  8
0
 62
     6
100
AcDbBlockEnd
  0
BLOCK
  5
474
330
46A
100
AcDbEntity
  8
0
 62
     6
100
AcDbBlockBegin
  2
*D26
 70
     1
 10
0.0
 20
0.0
 30
0.0
  3
*D26
  1

  0
LINE
  5
4C9
330
46A
100
AcDbEntity
  8
PROFILE
 62
     0
370
    -2
100
AcDbLine
 10
194.5000000000021
 20
183.0
 30
0.0
 11
245.5000000000001
 21
183.0
 31
0.0
  0
LINE
  5
4CA
330
46A
100
AcDbEntity
  8
PROFILE
 62
     0
370
    -2
100
AcDbLine
 10
194.5000000000021
 20
177.0
 30
0.0
 11
245.5000000000001
 21
177.0
 31
0.0
  0
LINE
  5
4CB
330
46A
100
AcDbEntity
  8
PROFILE
 62
     0
370
    -2
100
AcDbLine
 10
244.5000000000001
 20
184.0
 30
0.0
 11
244.5000000000001
 21
176.0
 31
0.0
  0
INSERT
  5
4CC
330
46A
100
AcDbEntity
  8
PROFILE
 62
     0
370
    -2
100
AcDbBlockReference
  2
_ArchTick
 10
244.5000000000001
 20
183.0
 30
0.0
 41
1.5
 42
1.5
 43
1.5
 50
90.0
  0
INSERT
  5
4CD
330
46A
100
AcDbEntity
  8
PROFILE
 62
     0
370
    -2
100
AcDbBlockReference
  2
_ArchTick
 10
244.5000000000001
 20
177.0
 30
0.0
 41
1.5
 42
1.5
 43
1.5
 50
270.0
  0
MTEXT
  5
4CE
330
46A
100
AcDbEntity
  8
PROFILE
 62
     7
100
AcDbMText
 10
242.2130177514794
 20
180.0
 30
0.0
 40
2.5
 41
0.0
 71
     5
 72
     1
  1
\A1;6
 11
0.0000000000000001
 21
1.0
 31
0.0
 73
     1
 44
1.0
  0
POINT
  5
4CF
330
46A
100
AcDbEntity
  8
Defpoints
 62
     0
100
AcDbPoint
 10
193.5000000000021
 20
183.0
 30
0.0
  0
POINT
  5
4D0
330
46A
100
AcDbEntity
  8
Defpoints
 62
     0
100
AcDbPoint
 10
193.5000000000021
 20
177.0
 30
0.0
  0
POINT
  5
4D1
330
46A
100
AcDbEntity
  8
Defpoints
 62
     0
100
AcDbPoint
 10
244.5000000000001
 20
177.0
 30
0.0
  0
ENDBLK
  5
475
330
46A
100
AcDbEntity
  8
0
 62
     6
100
AcDbBlockEnd
  0
BLOCK
  5
4EB
330
4E1
100
AcDbEntity
  8
0
 62
     6
100
AcDbBlockBegin
  2
*D27
 70
     1
 10
0.0
 20
0.0
 30
0.0
  3
*D27
  1

  0
LINE
  5
4FA
330
4E1
100
AcDbEntity
  8
PROFILE
 62
     0
370
    -2
100
AcDbLine
 10
280.4999999999998
 20
349.0000000694493
 30
0.0
 11
268.5
 21
349.0000000694493
 31
0.0
  0
LINE
  5
4FB
330
4E1
100
AcDbEntity
  8
PROFILE
 62
     0
370
    -2
100
AcDbLine
 10
280.4999999999999
 20
371.0000000694492
 30
0.0
 11
268.5
 21
371.0000000694492
 31
0.0
  0
LINE
  5
4FC
330
4E1
100
AcDbEntity
  8
PROFILE
 62
     0
370
    -2
100
AcDbLine
 10
269.5
 20
348.0000000694492
 30
0.0
 11
269.5
 21
372.0000000694493
 31
0.0
  0
INSERT
  5
4FD
330
4E1
100
AcDbEntity
  8
PROFILE
 62
     0
370
    -2
100
AcDbBlockReference
  2
_ArchTick
 10
269.5
 20
349.0000000694493
 30
0.0
 41
1.5
 42
1.5
 43
1.5
 50
270.0
  0
INSERT
  5
4FE
330
4E1
100
AcDbEntity
  8
PROFILE
 62
     0
370
    -2
100
AcDbBlockReference
  2
_ArchTick
 10
269.5
 20
371.0000000694492
 30
0.0
 41
1.5
 42
1.5
 43
1.5
 50
90.0
  0
MTEXT
  5
4FF
330
4E1
100
AcDbEntity
  8
PROFILE
 62
     7
100
AcDbMText
 10
266.994822485207
 20
360.0000000694493
 30
0.0
 40
2.5
 41
0.0
 71
     5
 72
     1
  1
\A1;%%c22
 11
0.0000000000000001
 21
1.0
 31
0.0
 73
     1
 44
1.0
  0
POINT
  5
500
330
4E1
100
AcDbEntity
  8
Defpoints
 62
     0
100
AcDbPoint
 10
281.4999999999998
 20
349.0000000694493
 30
0.0
  0
POINT
  5
501
330
4E1
100
AcDbEntity
  8
Defpoints
 62
     0
100
AcDbPoint
 10
281.4999999999999
 20
371.0000000694492
 30
0.0
  0
POINT
  5
502
330
4E1
100
AcDbEntity
  8
Defpoints
 62
     0
100
AcDbPoint
 10
269.5
 20
371.0000000694492
 30
0.0
  0
ENDBLK
  5
4EC
330
4E1
100
AcDbEntity
  8
0
 62
     6
100
AcDbBlockEnd
  0
BLOCK
  5
4F8
330
4EE
100
AcDbEntity
  8
0
 62
     6
100
AcDbBlockBegin
  2
*D28
 70
     1
 10
0.0
 20
0.0
 30
0.0
  3
*D28
  1

  0
LINE
  5
50C
330
4EE
100
AcDbEntity
  8
PROFILE
 62
     0
370
    -2
100
AcDbLine
 10
319.9999999999999
 20
320.0000000694491
 30
0.0
 11
262.9999999999999
 21
320.0000000694491
 31
0.0
  0
LINE
  5
50D
330
4EE
100
AcDbEntity
  8
PROFILE
 62
     0
370
    -2
100
AcDbLine
 10
319.9999999999999
 20
400.0000000694491
 30
0.0
 11
263.0
 21
400.0000000694491
 31
0.0
  0
LINE
  5
50E
330
4EE
100
AcDbEntity
  8
PROFILE
 62
     0
370
    -2
100
AcDbLine
 10
264.0
 20
319.0000000694491
 30
0.0
 11
264.0
 21
401.0000000694491
 31
0.0
  0
INSERT
  5
50F
330
4EE
100
AcDbEntity
  8
PROFILE
 62
     0
370
    -2
100
AcDbBlockReference
  2
_ArchTick
 10
264.0
 20
320.0000000694491
 30
0.0
 41
1.5
 42
1.5
 43
1.5
 50
270.0
  0
INSERT
  5
510
330
4EE
100
AcDbEntity
  8
PROFILE
 62
     0
370
    -2
100
AcDbBlockReference
  2
_ArchTick
 10
264.0
 20
400.0000000694491
 30
0.0
 41
1.5
 42
1.5
 43
1.5
 50
90.0
  0
MTEXT
  5
511
330
4EE
100
AcDbEntity
  8
PROFILE
 62
     7
100
AcDbMText
 10
261.494822485207
 20
360.0000000694492
 30
0.0
 40
2.5
 41
0.0
 71
     5
 72
     1
  1
\A1;%%c80
 11
0.0000000000000001
 21
1.0
 31
0.0
 73
     1
 44
1.0
  0
POINT
  5
512
330
4EE
100
AcDbEntity
  8
Defpoints
 62
     0
100
AcDbPoint
 10
320.9999999999999
 20
320.0000000694491
 30
0.0
  0
POINT
  5
513
330
4EE
100
AcDbEntity
  8
Defpoints
 62
     0
100
AcDbPoint
 10
320.9999999999999
 20
400.0000000694491
 30
0.0
  0
POINT
  5
514
330
4EE
100
AcDbEntity
  8
Defpoints
 62
     0
100
AcDbPoint
 10
264.0
 20
400.0000000694491
 30
0.0
  0
ENDBLK
  5
4F9
330
4EE
100
AcDbEntity
  8
0
 62
     6
100
AcDbBlockEnd
  0
BLOCK
  5
52D
330
523
100
AcDbEntity
  8
0
 62
     6
100
AcDbBlockBegin
  2
*D29
 70
     1
 10
0.0
 20
0.0
 30
0.0
  3
*D29
  1

  0
LINE
  5
537
330
523
100
AcDbEntity
  8
PROFILE
 62
     0
370
    -2
100
AcDbLine
 10
237.5238623069355
 20
400.9999999999999
 30
0.0
 11
228.5172055022017
 21
401.0
 31
0.0
  0
LINE
  5
538
330
523
100
AcDbEntity
  8
PROFILE
 62
     0
370
    -2
100
AcDbLine
 10
228.5172055022017
 20
401.0
 30
0.0
 11
220.0993801147535
 21
393.886423747764
 31
0.0
  0
MTEXT
  5
539
330
523
100
AcDbEntity
  8
PROFILE
 62
     7
100
AcDbMText
 10
233.5205339045686
 20
403.5051775147928
 30
0.0
 40
2.5
 41
0.0
 71
     5
 72
     1
  1
\A1;\U+2205100
 73
     1
 44
1.0
  0
SOLID
  5
53A
330
523
100
AcDbEntity
  8
PROFILE
 62
     0
100
AcDbTrace
 10
219.8304402437395
 20
394.2046727962938
 30
0.0
 11
220.3683199857674
 21
393.5681746992342
 31
0.0
 12
218.1898858235748
 22
392.2727845216804
 32
0.0
 13
218.1898858235748
 23
392.2727845216804
 33
0.0
  0
LINE
  5
53B
330
523
100
AcDbEntity
  8
PROFILE
 62
     0
370
    -2
100
AcDbLine
 10
179.0
 20
360.0000000000076
 30
0.0
 11
181.0
 21
360.0000000000076
 31
0.0
  0
LINE
  5
53C
330
523
100
AcDbEntity
  8
PROFILE
 62
     0
370
    -2
100
AcDbLine
 10
180.0
 20
359.0000000000076
 30
0.0
 11
180.0
 21
361.0000000000076
 31
0.0
  0
POINT
  5
53D
330
523
100
AcDbEntity
  8
Defpoints
 62
     0
100
AcDbPoint
 10
218.1898858235748
 20
392.2727845216804
 30
0.0
  0
POINT
  5
53E
330
523
100
AcDbEntity
  8
Defpoints
 62
     0
100
AcDbPoint
 10
141.8101141764253
 20
327.7272154783347
 30
0.0
  0
ENDBLK
  5
52E
330
523
100
AcDbEntity
  8
0
 62
     6
100
AcDbBlockEnd
  0
BLOCK
  5
54C
330
540
100
AcDbEntity
  8
0
 62
     6
100
AcDbBlockBegin
  2
*D30
 70
     1
 10
0.0
 20
0.0
 30
0.0
  3
*D30
  1

  0
LINE
  5
541
330
540
100
AcDbEntity
  8
PROFILE
 62
     0
370
    -2
100
AcDbLine
 10
212.1053390593277
 20
396.3553390593347
 30
0.0
 11
212.1053390593277
 21
416.5
 31
0.0
  0
LINE
  5
542
330
540
100
AcDbEntity
  8
PROFILE
 62
     0
370
    -2
100
AcDbLine
 10
218.6053390593277
 20
396.3553390593347
 30
0.0
 11
218.6053390593277
 21
416.5
 31
0.0
  0
LINE
  5
543
330
540
100
AcDbEntity
  8
PROFILE
 62
     0
370
    -2
100
AcDbLine
 10
212.1053390593277
 20
415.5
 30
0.0
 11
210.6053390593277
 21
415.5
 31
0.0
  0
LINE
  5
544
330
540
100
AcDbEntity
  8
PROFILE
 62
     0
370
    -2
100
AcDbLine
 10
218.6053390593277
 20
415.5
 30
0.0
 11
230.550605331517
 21
415.5
 31
0.0
  0
LINE
  5
545
330
540
100
AcDbEntity
  8
PROFILE
 62
     0
370
    -2
100
AcDbLine
 10
212.1053390593277
 20
415.5
 30
0.0
 11
218.6053390593277
 21
415.5
 31
0.0
  0
INSERT
  5
546
330
540
100
AcDbEntity
  8
PROFILE
 62
     0
370
    -2
100
AcDbBlockReference
  2
_ArchTick
 10
212.1053390593277
 20
415.5
 30
0.0
 41
1.5
 42
1.5
 43
1.5
  0
INSERT
  5
547
330
540
100
AcDbEntity
  8
PROFILE
 62
     0
370
    -2
100
AcDbBlockReference
  2
_ArchTick
 10
218.6053390593277
 20
415.5
 30
0.0
 41
1.5
 42
1.5
 43
1.5
 50
180.0
  0
MTEXT
  5
548
330
540
100
AcDbEntity
  8
PROFILE
 62
     7
100
AcDbMText
 10
226.0779721954224
 20
418.0051775147928
 30
0.0
 40
2.5
 41
0.0
 71
     5
 72
     1
  1
\A1;%%c6.5
 73
     1
 44
1.0
  0
POINT
  5
549
330
540
100
AcDbEntity
  8
Defpoints
 62
     0
100
AcDbPoint
 10
212.1053390593277
 20
395.3553390593348
 30
0.0
  0
POINT
  5
54A
330
540
100
AcDbEntity
  8
Defpoints
 62
     0
100
AcDbPoint
 10
218.6053390593277
 20
395.3553390593348
 30
0.0
  0
POINT
  5
54B
330
540
100
AcDbEntity
  8
Defpoints
 62
     0
100
AcDbPoint
 10
218.6053390593277
 20
415.5
 30
0.0
  0
ENDBLK
  5
54D
330
540
100
AcDbEntity
  8
0
 62
     6
100
AcDbBlockEnd
  0
BLOCK
  5
55C
330
552
100
AcDbEntity
  8
0
 62
     6
100
AcDbBlockBegin
  2
*D31
 70
     1
 10
0.0
 20
0.0
 30
0.0
  3
*D31
  1

  0
LINE
  5
583
330
552
100
AcDbEntity
  8
PROFILE
 62
     0
370
    -2
100
AcDbLine
 10
280.4999999999999
 20
169.0000000694412
 30
0.0
 11
268.5000000000001
 21
169.0000000694412
 31
0.0
  0
LINE
  5
584
330
552
100
AcDbEntity
  8
PROFILE
 62
     0
370
    -2
100
AcDbLine
 10
280.5000000000001
 20
191.0000000694412
 30
0.0
 11
268.5000000000001
 21
191.0000000694412
 31
0.0
  0
LINE
  5
585
330
552
100
AcDbEntity
  8
PROFILE
 62
     0
370
    -2
100
AcDbLine
 10
269.5000000000001
 20
168.0000000694412
 30
0.0
 11
269.5000000000001
 21
192.0000000694412
 31
0.0
  0
INSERT
  5
586
330
552
100
AcDbEntity
  8
PROFILE
 62
     0
370
    -2
100
AcDbBlockReference
  2
_ArchTick
 10
269.5000000000001
 20
169.0000000694412
 30
0.0
 41
1.5
 42
1.5
 43
1.5
 50
270.0
  0
INSERT
  5
587
330
552
100
AcDbEntity
  8
PROFILE
 62
     0
370
    -2
100
AcDbBlockReference
  2
_ArchTick
 10
269.5000000000001
 20
191.0000000694412
 30
0.0
 41
1.5
 42
1.5
 43
1.5
 50
90.0
  0
MTEXT
  5
588
330
552
100
AcDbEntity
  8
PROFILE
 62
     7
100
AcDbMText
 10
266.9948224852072
 20
180.0000000694412
 30
0.0
 40
2.5
 41
0.0
 71
     5
 72
     1
  1
\A1;%%c22
 11
0.0000000000000001
 21
1.0
 31
0.0
 73
     1
 44
1.0
  0
POINT
  5
589
330
552
100
AcDbEntity
  8
Defpoints
 62
     0
100
AcDbPoint
 10
281.4999999999999
 20
169.0000000694412
 30
0.0
  0
POINT
  5
58A
330
552
100
AcDbEntity
  8
Defpoints
 62
     0
100
AcDbPoint
 10
281.5000000000001
 20
191.0000000694412
 30
0.0
  0
POINT
  5
58B
330
552
100
AcDbEntity
  8
Defpoints
 62
     0
100
AcDbPoint
 10
269.5000000000001
 20
191.0000000694412
 30
0.0
  0
ENDBLK
  5
55D
330
552
100
AcDbEntity
  8
0
 62
     6
100
AcDbBlockEnd
  0
BLOCK
  5
568
330
55E
100
AcDbEntity
  8
0
 62
     6
100
AcDbBlockBegin
  2
*D32
 70
     1
 10
0.0
 20
0.0
 30
0.0
  3
*D32
  1

  0
LINE
  5
58C
330
55E
100
AcDbEntity
  8
PROFILE
 62
     0
370
    -2
100
AcDbLine
 10
320.0000000000001
 20
140.0000000694411
 30
0.0
 11
263.0000000000001
 21
140.0000000694411
 31
0.0
  0
LINE
  5
58D
330
55E
100
AcDbEntity
  8
PROFILE
 62
     0
370
    -2
100
AcDbLine
 10
320.0000000000001
 20
220.0000000694411
 30
0.0
 11
263.0000000000001
 21
220.0000000694411
 31
0.0
  0
LINE
  5
58E
330
55E
100
AcDbEntity
  8
PROFILE
 62
     0
370
    -2
100
AcDbLine
 10
264.0000000000001
 20
139.0000000694411
 30
0.0
 11
264.0000000000001
 21
221.0000000694412
 31
0.0
  0
INSERT
  5
58F
330
55E
100
AcDbEntity
  8
PROFILE
 62
     0
370
    -2
100
AcDbBlockReference
  2
_ArchTick
 10
264.0000000000001
 20
140.0000000694411
 30
0.0
 41
1.5
 42
1.5
 43
1.5
 50
270.0
  0
INSERT
  5
590
330
55E
100
AcDbEntity
  8
PROFILE
 62
     0
370
    -2
100
AcDbBlockReference
  2
_ArchTick
 10
264.0000000000001
 20
220.0000000694411
 30
0.0
 41
1.5
 42
1.5
 43
1.5
 50
90.0
  0
MTEXT
  5
591
330
55E
100
AcDbEntity
  8
PROFILE
 62
     7
100
AcDbMText
 10
261.4948224852072
 20
180.0000000694411
 30
0.0
 40
2.5
 41
0.0
 71
     5
 72
     1
  1
\A1;%%c80
 11
0.0000000000000001
 21
1.0
 31
0.0
 73
     1
 44
1.0
  0
POINT
  5
592
330
55E
100
AcDbEntity
  8
Defpoints
 62
     0
100
AcDbPoint
 10
321.0000000000001
 20
140.0000000694411
 30
0.0
  0
POINT
  5
593
330
55E
100
AcDbEntity
  8
Defpoints
 62
     0
100
AcDbPoint
 10
321.0000000000001
 20
220.0000000694411
 30
0.0
  0
POINT
  5
594
330
55E
100
AcDbEntity
  8
Defpoints
 62
     0
100
AcDbPoint
 10
264.0000000000001
 20
220.0000000694411
 30
0.0
  0
ENDBLK
  5
569
330
55E
100
AcDbEntity
  8
0
 62
     6
100
AcDbBlockEnd
  0
BLOCK
  5
573
330
56A
100
AcDbEntity
  8
0
 62
     6
100
AcDbBlockBegin
  2
*D33
 70
     1
 10
0.0
 20
0.0
 30
0.0
  3
*D33
  1

  0
LINE
  5
595
330
56A
100
AcDbEntity
  8
PROFILE
 62
     0
370
    -2
100
AcDbLine
 10
237.5238623069356
 20
220.999999999992
 30
0.0
 11
228.5172055022019
 21
220.999999999992
 31
0.0
  0
LINE
  5
596
330
56A
100
AcDbEntity
  8
PROFILE
 62
     0
370
    -2
100
AcDbLine
 10
228.5172055022019
 20
220.999999999992
 30
0.0
 11
220.0993801147536
 21
213.886423747756
 31
0.0
  0
MTEXT
  5
597
330
56A
100
AcDbEntity
  8
PROFILE
 62
     7
100
AcDbMText
 10
233.5205339045688
 20
223.5051775147849
 30
0.0
 40
2.5
 41
0.0
 71
     5
 72
     1
  1
\A1;\U+2205100
 73
     1
 44
1.0
  0
SOLID
  5
598
330
56A
100
AcDbEntity
  8
PROFILE
 62
     0
100
AcDbTrace
 10
219.8304402437397
 20
214.2046727962858
 30
0.0
 11
220.3683199857676
 21
213.5681746992262
 31
0.0
 12
218.1898858235749
 22
212.2727845216723
 32
0.0
 13
218.1898858235749
 23
212.2727845216723
 33
0.0
  0
LINE
  5
599
330
56A
100
AcDbEntity
  8
PROFILE
 62
     0
370
    -2
100
AcDbLine
 10
179.0000000000001
 20
179.9999999999995
 30
0.0
 11
181.0000000000001
 21
179.9999999999995
 31
0.0
  0
LINE
  5
59A
330
56A
100
AcDbEntity
  8
PROFILE
 62
     0
370
    -2
100
AcDbLine
 10
180.0000000000001
 20
178.9999999999995
 30
0.0
 11
180.0000000000001
 21
180.9999999999995
 31
0.0
  0
POINT
  5
59B
330
56A
100
AcDbEntity
  8
Defpoints
 62
     0
100
AcDbPoint
 10
218.1898858235749
 20
212.2727845216723
 30
0.0
  0
POINT
  5
59C
330
56A
100
AcDbEntity
  8
Defpoints
 62
     0
100
AcDbPoint
 10
141.8101141764254
 20
147.7272154783267
 30
0.0
  0
ENDBLK
  5
574
330
56A
100
AcDbEntity
  8
0
 62
     6
100
AcDbBlockEnd
  0
BLOCK
  5
581
330
575
100
AcDbEntity
  8
0
 62
     6
100
AcDbBlockBegin
  2
*D34
 70
     1
 10
0.0
 20
0.0
 30
0.0
  3
*D34
  1

  0
LINE
  5
59D
330
575
100
AcDbEntity
  8
PROFILE
 62
     0
370
    -2
100
AcDbLine
 10
212.1053390593278
 20
216.3553390593268
 30
0.0
 11
212.1053390593278
 21
236.499999999992
 31
0.0
  0
LINE
  5
59E
330
575
100
AcDbEntity
  8
PROFILE
 62
     0
370
    -2
100
AcDbLine
 10
218.6053390593278
 20
216.3553390593268
 30
0.0
 11
218.6053390593278
 21
236.499999999992
 31
0.0
  0
LINE
  5
59F
330
575
100
AcDbEntity
  8
PROFILE
 62
     0
370
    -2
100
AcDbLine
 10
212.1053390593278
 20
235.499999999992
 30
0.0
 11
210.6053390593278
 21
235.499999999992
 31
0.0
  0
LINE
  5
5A0
330
575
100
AcDbEntity
  8
PROFILE
 62
     0
370
    -2
100
AcDbLine
 10
218.6053390593278
 20
235.499999999992
 30
0.0
 11
230.5506053315172
 21
235.499999999992
 31
0.0
  0
LINE
  5
5A1
330
575
100
AcDbEntity
  8
PROFILE
 62
     0
370
    -2
100
AcDbLine
 10
212.1053390593278
 20
235.499999999992
 30
0.0
 11
218.6053390593278
 21
235.499999999992
 31
0.0
  0
INSERT
  5
5A2
330
575
100
AcDbEntity
  8
PROFILE
 62
     0
370
    -2
100
AcDbBlockReference
  2
_ArchTick
 10
212.1053390593278
 20
235.499999999992
 30
0.0
 41
1.5
 42
1.5
 43
1.5
  0
INSERT
  5
5A3
330
575
100
AcDbEntity
  8
PROFILE
 62
     0
370
    -2
100
AcDbBlockReference
  2
_ArchTick
 10
218.6053390593278
 20
235.499999999992
 30
0.0
 41
1.5
 42
1.5
 43
1.5
 50
180.0
  0
MTEXT
  5
5A4
330
575
100
AcDbEntity
  8
PROFILE
 62
     7
100
AcDbMText
 10
226.0779721954225
 20
238.0051775147849
 30
0.0
 40
2.5
 41
0.0
 71
     5
 72
     1
  1
\A1;%%c6.5
 73
     1
 44
1.0
  0
POINT
  5
5A5
330
575
100
AcDbEntity
  8
Defpoints
 62
     0
100
AcDbPoint
 10
212.1053390593278
 20
215.3553390593268
 30
0.0
  0
POINT
  5
5A6
330
575
100
AcDbEntity
  8
Defpoints
 62
     0
100
AcDbPoint
 10
218.6053390593278
 20
215.3553390593268
 30
0.0
  0
POINT
  5
5A7
330
575
100
AcDbEntity
  8
Defpoints
 62
     0
100
AcDbPoint
 10
218.6053390593278
 20
235.499999999992
 30
0.0
  0
ENDBLK
  5
582
330
575
100
AcDbEntity
  8
0
 62
     6
100
AcDbBlockEnd
  0
ENDSEC
  0
SECTION
  2
ENTITIES
  0
LINE
  5
40
330
2
100
AcDbEntity
  8
PROFILE
  6
CENTER
 62
     1
100
AcDbLine
 10
231.0000000000021
 20
180.0
 30
0.0
 11
128.9999999999977
 21
180.0
 31
0.0
  0
ARC
  5
42
330
2
100
AcDbEntity
  8
PROFILE
100
AcDbCircle
 10
179.9999999999999
 20
180.0
 30
0.0
 40
12.5
100
AcDbArc
 50
13.88654036262899
 51
346.1134596373707
  0
CIRCLE
  5
43
330
2
100
AcDbEntity
  8
PROFILE
100
AcDbCircle
 10
180.000000000002
 20
179.9999999999978
 30
0.0
 40
11.0
  0
CIRCLE
  5
44
330
2
100
AcDbEntity
  8
PROFILE
100
AcDbCircle
 10
180.000000000002
 20
180.0000000000016
 30
0.0
 40
40.0
  0
LINE
  5
45
330
2
100
AcDbEntity
  8
PROFILE
  6
CENTER
 62
     1
100
AcDbLine
 10
140.7555736441481
 20
140.7555736441475
 30
0.0
 11
219.2444263558526
 21
219.2444263558523
 31
0.0
  0
LINE
  5
46
330
2
100
AcDbEntity
  8
PROFILE
  6
CENTER
 62
     1
100
AcDbLine
 10
219.2444263558524
 20
140.7555736441474
 30
0.0
 11
140.7555736441479
 21
219.244426355852
 31
0.0
  0
LINE
  5
47
330
2
100
AcDbEntity
  8
PROFILE
  6
CENTER
 62
     1
100
AcDbLine
 10
180.0
 20
231.0000000000022
 30
0.0
 11
180.0
 21
128.9999999999978
 31
0.0
  0
CIRCLE
  5
48
330
2
100
AcDbEntity
  8
PROFILE
100
AcDbCircle
 10
180.0
 20
179.9999999999996
 30
0.0
 40
26.0000000000004
  0
LINE
  5
49
330
2
100
AcDbEntity
  8
PROFILE
100
AcDbLine
 10
224.9999999999964
 20
140.3137303340319
 30
0.0
 11
224.9999999999971
 21
219.6862696659669
 31
0.0
  0
LINE
  5
4A
330
2
100
AcDbEntity
  8
PROFILE
100
AcDbLine
 10
135.0000000000037
 20
219.6862696659673
 30
0.0
 11
135.0000000000028
 21
140.3137303340324
 31
0.0
  0
LINE
  5
4B
330
2
100
AcDbEntity
  8
PROFILE
100
AcDbLine
 10
140.3137303340323
 20
135.0000000000033
 30
0.0
 11
219.6862696659672
 21
135.0000000000024
 31
0.0
  0
ARC
  5
4C
330
2
100
AcDbEntity
  8
PROFILE
100
AcDbCircle
 10
180.0000000000004
 20
180.000000000004
 30
0.0
 40
60.0
100
AcDbArc
 50
221.4096221092725
 51
228.5903778907302
  0
CIRCLE
  5
4D
330
2
100
AcDbEntity
  8
PROFILE
100
AcDbCircle
 10
144.6446609406724
 20
144.6446609406724
 30
0.0
 40
3.25
  0
ARC
  5
4E
330
2
100
AcDbEntity
  8
PROFILE
  6
CENTER
 62
     1
100
AcDbCircle
 10
179.9999999999999
 20
179.9999999999996
 30
0.0
 40
50.0
100
AcDbArc
 50
217.7058208691136
 51
232.3415379937886
  0
ARC
  5
4F
330
2
100
AcDbEntity
  8
PROFILE
100
AcDbCircle
 10
179.9999999999955
 20
180.0
 30
0.0
 40
60.0
100
AcDbArc
 50
311.4096221092726
 51
318.5903778907302
  0
ARC
  5
50
330
2
100
AcDbEntity
  8
PROFILE
  6
CENTER
 62
     1
100
AcDbCircle
 10
180.0
 20
179.9999999999995
 30
0.0
 40
50.0
100
AcDbArc
 50
307.7058208691135
 51
322.3415379937886
  0
CIRCLE
  5
51
330
2
100
AcDbEntity
  8
PROFILE
100
AcDbCircle
 10
215.3553390593272
 20
144.644660940672
 30
0.0
 40
3.25
  0
LINE
  5
52
330
2
100
AcDbEntity
  8
PROFILE
100
AcDbLine
 10
219.6862696659677
 20
224.999999999996
 30
0.0
 11
140.3137303340329
 21
224.9999999999969
 31
0.0
  0
ARC
  5
53
330
2
100
AcDbEntity
  8
PROFILE
  6
CENTER
 62
     1
100
AcDbCircle
 10
180.0
 20
179.9999999999996
 30
0.0
 40
50.0
100
AcDbArc
 50
127.7058208691135
 51
142.3415379937886
  0
ARC
  5
54
330
2
100
AcDbEntity
  8
PROFILE
  6
CENTER
 62
     1
100
AcDbCircle
 10
180.0
 20
179.9999999999996
 30
0.0
 40
50.0
100
AcDbArc
 50
127.7058208691135
 51
142.3415379937885
  0
ARC
  5
55
330
2
100
AcDbEntity
  8
PROFILE
100
AcDbCircle
 10
180.0000000000044
 20
179.9999999999992
 30
0.0
 40
60.0
100
AcDbArc
 50
131.4096221092725
 51
138.59037789073
  0
CIRCLE
  5
56
330
2
100
AcDbEntity
  8
PROFILE
100
AcDbCircle
 10
144.6446609406728
 20
215.3553390593272
 30
0.0
 40
3.25
  0
CIRCLE
  5
57
330
2
100
AcDbEntity
  8
PROFILE
100
AcDbCircle
 10
144.6446609406728
 20
215.3553390593273
 30
0.0
 40
3.25
  0
ARC
  5
58
330
2
100
AcDbEntity
  8
PROFILE
  6
CENTER
 62
     1
100
AcDbCircle
 10
180.0000000000001
 20
179.9999999999996
 30
0.0
 40
50.0
100
AcDbArc
 50
37.7058208691135
 51
52.34153799378852
  0
LINE
  5
59
330
2
100
AcDbEntity
  8
PROFILE
100
AcDbLine
 10
190.583005244261
 20
177.0
 30
0.0
 11
193.500000000002
 21
177.0
 31
0.0
  0
LINE
  5
5A
330
2
100
AcDbEntity
  8
PROFILE
100
AcDbLine
 10
193.500000000002
 20
183.0
 30
0.0
 11
190.5830052442598
 21
183.0
 31
0.0
  0
LINE
  5
5B
330
2
100
AcDbEntity
  8
PROFILE
100
AcDbLine
 10
193.500000000002
 20
177.0
 30
0.0
 11
193.500000000002
 21
183.0
 31
0.0
  0
CIRCLE
  5
5C
330
2
100
AcDbEntity
  8
PROFILE
100
AcDbCircle
 10
180.0000000000004
 20
179.9999999999993
 30
0.0
 40
4.500000000000284
  0
CIRCLE
  5
5D
330
2
100
AcDbEntity
  8
PROFILE
100
AcDbCircle
 10
180.0000000000003
 20
179.9999999999993
 30
0.0
 40
3.399999999999863
  0
CIRCLE
  5
5E
330
2
100
AcDbEntity
  8
PROFILE
 62
     1
100
AcDbCircle
 10
180.0000000000003
 20
179.9999999999993
 30
0.0
 40
4.000000000000341
  0
CIRCLE
  5
5F
330
2
100
AcDbEntity
  8
PROFILE
 62
     1
100
AcDbCircle
 10
180.0000000000003
 20
179.9999999999993
 30
0.0
 40
5.500000000000226
  0
ARC
  5
60
330
2
100
AcDbEntity
  8
PROFILE
100
AcDbCircle
 10
179.9999999999996
 20
179.9999999999952
 30
0.0
 40
60.0
100
AcDbArc
 50
41.40962210927255
 51
48.59037789073017
  0
CIRCLE
  5
61
330
2
100
AcDbEntity
  8
PROFILE
100
AcDbCircle
 10
215.3553390593276
 20
215.3553390593268
 30
0.0
 40
3.25
  0
TEXT
  5
72
330
2
100
AcDbEntity
  8
PROFILE
100
AcDbText
 10
251.6420118343195
 20
95.15532544378698
 30
0.0
 40
10.0
  1
PB090L2
 72
     4
 11
280.0
 21
100.0
 31
0.0
100
AcDbText
  0
TEXT
  5
B2
330
2
100
AcDbEntity
  8
PROFILE
100
AcDbText
 10
251.6420118343195
 20
275.155325443787
 30
0.0
 40
10.0
  1
PB090L1
 72
     4
 11
280.0
 21
280.0
 31
0.0
100
AcDbText
  0
LINE
  5
D7
330
2
100
AcDbEntity
  8
PROFILE
  6
CENTER
 62
     1
100
AcDbLine
 10
231.0000000000021
 20
360.000000000008
 30
0.0
 11
128.9999999999977
 21
360.000000000008
 31
0.0
  0
LINE
  5
D8
330
2
100
AcDbEntity
  8
PROFILE
100
AcDbLine
 10
135.0000000000038
 20
399.6862696659753
 30
0.0
 11
135.0000000000028
 21
320.3137303340404
 31
0.0
  0
LINE
  5
D9
330
2
100
AcDbEntity
  8
PROFILE
100
AcDbLine
 10
224.9999999999964
 20
320.3137303340398
 30
0.0
 11
224.9999999999971
 21
399.6862696659749
 31
0.0
  0
CIRCLE
  5
DA
330
2
100
AcDbEntity
  8
PROFILE
100
AcDbCircle
 10
180.0
 20
360.0000000000076
 30
0.0
 40
26.0000000000004
  0
LINE
  5
DB
330
2
100
AcDbEntity
  8
PROFILE
  6
CENTER
 62
     1
100
AcDbLine
 10
180.0
 20
411.0000000000101
 30
0.0
 11
180.0
 21
309.0000000000058
 31
0.0
  0
LINE
  5
DC
330
2
100
AcDbEntity
  8
PROFILE
  6
CENTER
 62
     1
100
AcDbLine
 10
219.2444263558524
 20
320.7555736441554
 30
0.0
 11
140.7555736441479
 21
399.24442635586
 31
0.0
  0
LINE
  5
DD
330
2
100
AcDbEntity
  8
PROFILE
  6
CENTER
 62
     1
100
AcDbLine
 10
140.7555736441481
 20
320.7555736441556
 30
0.0
 11
219.2444263558526
 21
399.2444263558603
 31
0.0
  0
CIRCLE
  5
DE
330
2
100
AcDbEntity
  8
PROFILE
100
AcDbCircle
 10
180.000000000002
 20
360.0000000000097
 30
0.0
 40
40.0
  0
LINE
  5
DF
330
2
100
AcDbEntity
  8
PROFILE
100
AcDbLine
 10
140.3137303340324
 20
315.0000000000113
 30
0.0
 11
219.6862696659672
 21
315.0000000000104
 31
0.0
  0
ARC
  5
E0
330
2
100
AcDbEntity
  8
PROFILE
100
AcDbCircle
 10
180.0000000000004
 20
360.000000000012
 30
0.0
 40
60.0
100
AcDbArc
 50
221.4096221092725
 51
228.5903778907302
  0
ARC
  5
E1
330
2
100
AcDbEntity
  8
PROFILE
  6
CENTER
 62
     1
100
AcDbCircle
 10
180.0
 20
360.0000000000076
 30
0.0
 40
50.0
100
AcDbArc
 50
217.7058208691136
 51
232.3415379937886
  0
CIRCLE
  5
E2
330
2
100
AcDbEntity
  8
PROFILE
100
AcDbCircle
 10
144.6446609406724
 20
324.6446609406803
 30
0.0
 40
3.25
  0
CIRCLE
  5
E3
330
2
100
AcDbEntity
  8
PROFILE
100
AcDbCircle
 10
215.3553390593272
 20
324.6446609406799
 30
0.0
 40
3.25
  0
ARC
  5
E4
330
2
100
AcDbEntity
  8
PROFILE
  6
CENTER
 62
     1
100
AcDbCircle
 10
180.0
 20
360.0000000000075
 30
0.0
 40
50.0
100
AcDbArc
 50
307.7058208691135
 51
322.3415379937886
  0
ARC
  5
E5
330
2
100
AcDbEntity
  8
PROFILE
100
AcDbCircle
 10
179.9999999999955
 20
360.000000000008
 30
0.0
 40
60.0
100
AcDbArc
 50
311.4096221092726
 51
318.5903778907302
  0
CIRCLE
  5
E6
330
2
100
AcDbEntity
  8
PROFILE
 62
     1
100
AcDbCircle
 10
180.0000000000003
 20
360.0000000000073
 30
0.0
 40
5.500000000000226
  0
CIRCLE
  5
E7
330
2
100
AcDbEntity
  8
PROFILE
 62
     1
100
AcDbCircle
 10
180.0000000000003
 20
360.0000000000073
 30
0.0
 40
4.000000000000341
  0
CIRCLE
  5
E8
330
2
100
AcDbEntity
  8
PROFILE
100
AcDbCircle
 10
180.0000000000003
 20
360.0000000000073
 30
0.0
 40
3.399999999999863
  0
CIRCLE
  5
E9
330
2
100
AcDbEntity
  8
PROFILE
100
AcDbCircle
 10
180.0000000000004
 20
360.0000000000073
 30
0.0
 40
4.500000000000284
  0
CIRCLE
  5
EA
330
2
100
AcDbEntity
  8
PROFILE
100
AcDbCircle
 10
180.000000000002
 20
360.0000000000058
 30
0.0
 40
11.0
  0
LINE
  5
EB
330
2
100
AcDbEntity
  8
PROFILE
100
AcDbLine
 10
193.500000000002
 20
357.000000000008
 30
0.0
 11
193.500000000002
 21
363.000000000008
 31
0.0
  0
LINE
  5
EC
330
2
100
AcDbEntity
  8
PROFILE
100
AcDbLine
 10
193.500000000002
 20
363.000000000008
 30
0.0
 11
190.5830052442598
 21
363.000000000008
 31
0.0
  0
LINE
  5
ED
330
2
100
AcDbEntity
  8
PROFILE
100
AcDbLine
 10
190.583005244261
 20
357.000000000008
 30
0.0
 11
193.500000000002
 21
357.000000000008
 31
0.0
  0
ARC
  5
EE
330
2
100
AcDbEntity
  8
PROFILE
100
AcDbCircle
 10
179.9999999999999
 20
360.000000000008
 30
0.0
 40
12.5
100
AcDbArc
 50
13.88654036262899
 51
346.1134596373707
  0
LINE
  5
EF
330
2
100
AcDbEntity
  8
PROFILE
100
AcDbLine
 10
219.6862696659677
 20
405.0000000000038
 30
0.0
 11
140.3137303340329
 21
405.0000000000048
 31
0.0
  0
ARC
  5
F0
330
2
100
AcDbEntity
  8
PROFILE
100
AcDbCircle
 10
180.0000000000045
 20
360.0000000000072
 30
0.0
 40
60.0
100
AcDbArc
 50
131.4096221092725
 51
138.59037789073
  0
CIRCLE
  5
F1
330
2
100
AcDbEntity
  8
PROFILE
100
AcDbCircle
 10
144.6446609406728
 20
395.3553390593352
 30
0.0
 40
3.25
  0
ARC
  5
F2
330
2
100
AcDbEntity
  8
PROFILE
  6
CENTER
 62
     1
100
AcDbCircle
 10
180.0
 20
360.0000000000076
 30
0.0
 40
50.0
100
AcDbArc
 50
127.7058208691135
 51
142.3415379937885
  0
ARC
  5
F3
330
2
100
AcDbEntity
  8
PROFILE
  6
CENTER
 62
     1
100
AcDbCircle
 10
180.0
 20
360.0000000000076
 30
0.0
 40
50.0
100
AcDbArc
 50
127.7058208691135
 51
142.3415379937886
  0
CIRCLE
  5
F4
330
2
100
AcDbEntity
  8
PROFILE
100
AcDbCircle
 10
144.6446609406728
 20
395.3553390593352
 30
0.0
 40
3.25
  0
CIRCLE
  5
F5
330
2
100
AcDbEntity
  8
PROFILE
100
AcDbCircle
 10
215.3553390593277
 20
395.3553390593348
 30
0.0
 40
3.25
  0
ARC
  5
F6
330
2
100
AcDbEntity
  8
PROFILE
  6
CENTER
 62
     1
100
AcDbCircle
 10
180.0000000000001
 20
360.0000000000076
 30
0.0
 40
50.0
100
AcDbArc
 50
37.7058208691135
 51
52.34153799378852
  0
ARC
  5
F7
330
2
100
AcDbEntity
  8
PROFILE
100
AcDbCircle
 10
179.9999999999996
 20
360.0000000000032
 30
0.0
 40
60.0
100
AcDbArc
 50
41.40962210927255
 51
48.59037789073017
  0
LINE
  5
F8
330
2
100
AcDbEntity
  8
PROFILE
100
AcDbLine
 10
351.9999999999999
 20
395.0000000694491
 30
0.0
 11
339.9999999999997
 21
395.0000000694491
 31
0.0
  0
LINE
  5
F9
330
2
100
AcDbEntity
  8
PROFILE
100
AcDbLine
 10
351.9999999999999
 20
325.0000000694492
 30
0.0
 11
339.9999999999997
 21
325.0000000694492
 31
0.0
  0
LINE
  5
FA
330
2
100
AcDbEntity
  8
0
  6
CENTER
 62
     1
100
AcDbLine
 10
446.5000000000049
 20
359.9999999999998
 30
0.0
 11
273.9999999999945
 21
359.9999999999998
 31
0.0
1001
ACAD
1000
ASC_BOUNDS
1002
{
1070
    19
1005
0
1005
0
1005
0
1005
0
1005
0
1005
0
1005
0
1005
0
1005
0
1005
0
1005
0
1005
0
1005
0
1005
0
1005
0
1005
0
1005
0
1005
0
1002
}
  0
LINE
  5
FB
330
2
100
AcDbEntity
  8
PROFILE
100
AcDbLine
 10
329.9999999999996
 20
315.0000000694491
 30
0.0
 11
329.9999999999997
 21
405.000000069449
 31
0.0
  0
LINE
  5
FC
330
2
100
AcDbEntity
  8
PROFILE
100
AcDbLine
 10
339.9999999999997
 20
404.5000000694491
 30
0.0
 11
339.9999999999997
 21
315.5000000694491
 31
0.0
  0
LINE
  5
FD
330
2
100
AcDbEntity
  8
PROFILE
100
AcDbLine
 10
319.9999999999998
 20
321.0000000694491
 30
0.0
 11
319.9999999999999
 21
399.0000000694491
 31
0.0
  0
ARC
  5
FE
330
2
100
AcDbEntity
  8
PROFILE
100
AcDbCircle
 10
281.4999999999999
 20
369.5000000694492
 30
0.0
 40
1.500000000000055
100
AcDbArc
 50
90.00000000000323
 51
180.0
  0
ARC
  5
FF
330
2
100
AcDbEntity
  8
PROFILE
100
AcDbCircle
 10
281.4999999999998
 20
350.5000000694492
 30
0.0
 40
1.5
100
AcDbArc
 50
180.0
 51
270.0000000000017
  0
LINE
  5
100
330
2
100
AcDbEntity
  8
PROFILE
100
AcDbLine
 10
339.9999999999997
 20
315.5000000694491
 30
0.0
 11
339.4999999999997
 21
315.0000000694491
 31
0.0
  0
LINE
  5
101
330
2
100
AcDbEntity
  8
PROFILE
100
AcDbLine
 10
339.9999999999997
 20
323.5857171573829
 30
0.0
 11
339.4999999999997
 21
323.4076511423851
 31
0.0
  0
LINE
  5
102
330
2
100
AcDbEntity
  8
PROFILE
100
AcDbLine
 10
329.9999999999997
 20
315.0000000694491
 30
0.0
 11
339.4999999999997
 21
315.0000000694491
 31
0.0
  0
LINE
  5
103
330
2
100
AcDbEntity
  8
PROFILE
100
AcDbLine
 10
329.9999999999997
 20
323.4076511423851
 30
0.0
 11
339.4999999999997
 21
323.4076511423851
 31
0.0
  0
LINE
  5
104
330
2
100
AcDbEntity
  8
PROFILE
100
AcDbLine
 10
320.9999999999999
 20
320.0000000694491
 30
0.0
 11
319.9999999999999
 21
321.0000000694491
 31
0.0
  0
LINE
  5
105
330
2
100
AcDbEntity
  8
PROFILE
100
AcDbLine
 10
329.9999999999999
 20
320.0000000694491
 30
0.0
 11
320.9999999999999
 21
320.0000000694491
 31
0.0
  0
LINE
  5
106
330
2
100
AcDbEntity
  8
PROFILE
100
AcDbLine
 10
318.4999999999998
 20
371.0000000694491
 30
0.0
 11
281.4999999999999
 21
371.0000000694492
 31
0.0
  0
LINE
  5
107
330
2
100
AcDbEntity
  8
PROFILE
100
AcDbLine
 10
281.4999999999998
 20
349.0000000694493
 30
0.0
 11
318.5
 21
349.0000000694491
 31
0.0
  0
ARC
  5
108
330
2
100
AcDbEntity
  8
PROFILE
100
AcDbCircle
 10
285.9999999999998
 20
359.9999999999998
 30
0.0
 40
3.0
100
AcDbArc
 50
90.0
 51
270.0
  0
ARC
  5
109
330
2
100
AcDbEntity
  8
PROFILE
100
AcDbCircle
 10
309.9999999999998
 20
359.9999999999998
 30
0.0
 40
3.0
100
AcDbArc
 50
270.0
 51
90.0
  0
LINE
  5
10A
330
2
100
AcDbEntity
  8
PROFILE
100
AcDbLine
 10
285.9999999999998
 20
356.9999999999998
 30
0.0
 11
309.9999999999998
 21
356.9999999999998
 31
0.0
  0
LINE
  5
10B
330
2
100
AcDbEntity
  8
PROFILE
100
AcDbLine
 10
285.9999999999998
 20
362.9999999999998
 30
0.0
 11
309.9999999999998
 21
362.9999999999998
 31
0.0
  0
LINE
  5
10C
330
2
100
AcDbEntity
  8
PROFILE
100
AcDbLine
 10
279.9999999999998
 20
369.4999999305502
 30
0.0
 11
279.9999999999999
 21
350.5000000694492
 31
0.0
  0
ARC
  5
10D
330
2
100
AcDbEntity
  8
PROFILE
100
AcDbCircle
 10
319.938148666058
 20
370.9677770703619
 30
0.0
 40
1.53347086912087
100
AcDbArc
 50
87.68839301480252
 51
159.691742037159
  0
LINE
  5
10E
330
2
100
AcDbEntity
  8
PROFILE
100
AcDbLine
 10
318.4999999999998
 20
371.4999999382554
 30
0.0
 11
318.5
 21
348.5000000694491
 31
0.0
  0
ARC
  5
10F
330
2
100
AcDbEntity
  8
PROFILE
100
AcDbCircle
 10
319.9381486660578
 20
349.0322230685363
 30
0.0
 40
1.533470869120744
100
AcDbArc
 50
200.3082579628424
 51
272.3116069852039
  0
LINE
  5
110
330
2
100
AcDbEntity
  8
PROFILE
100
AcDbLine
 10
329.9999999999999
 20
400.0000000694491
 30
0.0
 11
320.9999999999999
 21
400.0000000694491
 31
0.0
  0
LINE
  5
111
330
2
100
AcDbEntity
  8
PROFILE
100
AcDbLine
 10
320.9999999999999
 20
400.0000000694491
 30
0.0
 11
319.9999999999999
 21
399.0000000694491
 31
0.0
  0
LINE
  5
112
330
2
100
AcDbEntity
  8
PROFILE
100
AcDbLine
 10
329.9999999999997
 20
396.5923489965131
 30
0.0
 11
339.4999999999997
 21
396.5923489965131
 31
0.0
  0
LINE
  5
113
330
2
100
AcDbEntity
  8
PROFILE
100
AcDbLine
 10
329.9999999999997
 20
405.000000069449
 30
0.0
 11
339.4999999999997
 21
405.000000069449
 31
0.0
  0
LINE
  5
114
330
2
100
AcDbEntity
  8
PROFILE
100
AcDbLine
 10
339.9999999999997
 20
396.4142829815155
 30
0.0
 11
339.4999999999997
 21
396.5923489965131
 31
0.0
  0
LINE
  5
115
330
2
100
AcDbEntity
  8
PROFILE
100
AcDbLine
 10
339.9999999999997
 20
404.5000000694491
 30
0.0
 11
339.4999999999997
 21
405.000000069449
 31
0.0
  0
CIRCLE
  5
116
330
2
100
AcDbEntity
  8
PROFILE
100
AcDbCircle
 10
423.4999999999997
 20
374.0000000694489
 30
0.0
 40
6.349999999999994
  0
LWPOLYLINE
  5
118
330
2
100
AcDbEntity
  8
PROFILE
100
AcDbPolyline
 90
        9
 70
   128
 43
0.0
 10
371.9999999999997
 20
338.2055053517457
 10
370.7511824694443
 20
342.9364599601963
 10
369.7622706907197
 20
347.7277823950987
 10
369.0657108401472
 20
352.6432251906871
 10
368.7095020613651
 20
357.5944010288428
 10
368.7667630188019
 20
363.6401554187174
 10
369.3499249434766
 20
369.6586884681534
 10
370.4568141437083
 20
375.7732944586751
 10
371.9999999999997
 20
381.7944947871525
  0
LINE
  5
119
330
2
100
AcDbEntity
  8
PROFILE
100
AcDbLine
 10
383.9999999999997
 20
404.5000000694491
 30
0.0
 11
383.9999999999997
 21
315.5000000694491
 31
0.0
  0
LINE
  5
11A
330
2
100
AcDbEntity
  8
PROFILE
100
AcDbLine
 10
365.9999999999998
 20
319.0000000694492
 30
0.0
 11
365.9999999999998
 21
401.000000069449
 31
0.0
  0
LINE
  5
11B
330
2
100
AcDbEntity
  8
PROFILE
100
AcDbLine
 10
357.9999999999998
 20
319.0000000694492
 30
0.0
 11
357.9999999999998
 21
401.000000069449
 31
0.0
  0
LINE
  5
11C
330
2
100
AcDbEntity
  8
PROFILE
100
AcDbLine
 10
351.9999999999998
 20
325.0000000694492
 30
0.0
 11
351.9999999999999
 21
395.0000000694491
 31
0.0
  0
LINE
  5
11D
330
2
100
AcDbEntity
  8
PROFILE
100
AcDbLine
 10
440.4999999999995
 20
315.5000000694491
 30
0.0
 11
440.4999999999995
 21
404.5000000694491
 31
0.0
  0
LINE
  5
11E
330
2
100
AcDbEntity
  8
PROFILE
100
AcDbLine
 10
439.9999999999995
 20
315.0000000694491
 30
0.0
 11
368.7095020604252
 21
315.0000000694491
 31
0.0
  0
LINE
  5
11F
330
2
100
AcDbEntity
  8
PROFILE
100
AcDbLine
 10
399.9999999999997
 20
320.3137304034803
 30
0.0
 11
440.4999999999995
 21
320.3137304034803
 31
0.0
  0
LWPOLYLINE
  5
120
330
2
100
AcDbEntity
  8
PROFILE
100
AcDbPolyline
 90
        5
 70
   128
 43
0.0
 10
389.9999999999997
 20
338.2055053517458
 10
390.8222986324896
 20
336.3799653893311
 10
391.6869285035313
 20
334.5728771860166
 10
395.6097066070399
 20
327.3283079045019
 10
399.9999999999997
 20
320.3137304034803
  0
LINE
  5
121
330
2
100
AcDbEntity
  8
PROFILE
100
AcDbLine
 10
389.9999999999997
 20
338.2055053517458
 30
0.0
 11
389.9999999999998
 21
315.0000000694491
 31
0.0
  0
LINE
  5
122
330
2
100
AcDbEntity
  8
PROFILE
100
AcDbLine
 10
371.9999999999997
 20
338.2055053517457
 30
0.0
 11
371.9999999999997
 21
331.230447447749
 31
0.0
  0
LINE
  5
123
330
2
100
AcDbEntity
  8
PROFILE
100
AcDbLine
 10
371.9999999999997
 20
319.1060782478974
 30
0.0
 11
383.9999999999997
 21
319.1060782478974
 31
0.0
  0
LINE
  5
124
330
2
100
AcDbEntity
  8
PROFILE
100
AcDbLine
 10
371.9999999999997
 20
331.230447447749
 30
0.0
 11
383.9999999999997
 21
331.230447447749
 31
0.0
  0
LINE
  5
125
330
2
100
AcDbEntity
  8
PROFILE
100
AcDbLine
 10
371.9999999999997
 20
331.230447447749
 30
0.0
 11
369.7914132202283
 21
331.2304474477489
 31
0.0
  0
LWPOLYLINE
  5
126
330
2
100
AcDbEntity
  8
PROFILE
100
AcDbPolyline
 90
       12
 70
   128
 43
0.0
 10
369.7914132202283
 20
331.2304474477489
 10
369.1973559180273
 20
331.1374038832754
 10
368.6925320783515
 20
330.8506089776631
 10
368.3039561746007
 20
330.3500062756033
 10
368.0651760885997
 20
329.6405884105936
 10
368.000901339734
 20
328.8714563035409
 10
368.0700537417479
 20
327.9828073067001
 10
368.2459147084982
 20
327.099115147625
 10
368.5164521941346
 20
326.1677153523274
 10
368.8966217526543
 20
325.1422094945084
 10
369.3515912453594
 20
324.1107919300354
 10
369.7914132202283
 20
323.2304474477489
  0
LWPOLYLINE
  5
127
330
2
100
AcDbEntity
  8
PROFILE
100
AcDbPolyline
 90
        3
 70
   128
 43
0.0
 10
369.7914132202283
 20
323.2304474477489
 10
371.3971842921755
 20
320.216735924546
 10
371.9999999999997
 20
319.1060782478974
  0
LINE
  5
128
330
2
100
AcDbEntity
  8
PROFILE
100
AcDbLine
 10
371.9999999999997
 20
319.1060782478974
 30
0.0
 11
371.9999999999997
 21
315.0000000694491
 31
0.0
  0
LINE
  5
129
330
2
100
AcDbEntity
  8
PROFILE
100
AcDbLine
 10
357.9999999999998
 20
319.0000000694492
 30
0.0
 11
351.9999999999999
 21
325.0000000694492
 31
0.0
  0
LINE
  5
12A
330
2
100
AcDbEntity
  8
PROFILE
100
AcDbLine
 10
365.9999999999998
 20
319.0000000694492
 30
0.0
 11
357.9999999999998
 21
319.0000000694492
 31
0.0
  0
LINE
  5
12B
330
2
100
AcDbEntity
  8
PROFILE
100
AcDbLine
 10
368.6666666666665
 20
315.0000000694491
 30
0.0
 11
365.9999999999998
 21
319.0000000694492
 31
0.0
  0
LINE
  5
12C
330
2
100
AcDbEntity
  8
PROFILE
100
AcDbLine
 10
383.9999999999997
 20
315.5000000694491
 30
0.0
 11
383.4999999999997
 21
315.0000000694491
 31
0.0
  0
LINE
  5
12D
330
2
100
AcDbEntity
  8
PROFILE
100
AcDbLine
 10
399.9999999999997
 20
320.3137304034803
 30
0.0
 11
399.9999999999997
 21
315.0000000694491
 31
0.0
  0
LINE
  5
12E
330
2
100
AcDbEntity
  8
PROFILE
100
AcDbLine
 10
371.9999999999997
 20
338.2055053517457
 30
0.0
 11
389.9999999999997
 21
338.2055053517457
 31
0.0
  0
LINE
  5
12F
330
2
100
AcDbEntity
  8
PROFILE
100
AcDbLine
 10
439.9999999999995
 20
315.0000000694491
 30
0.0
 11
440.4999999999995
 21
315.5000000694491
 31
0.0
  0
LINE
  5
130
330
2
100
AcDbEntity
  8
PROFILE
100
AcDbLine
 10
439.9999999999997
 20
405.000000069449
 30
0.0
 11
368.7095020604252
 21
405.000000069449
 31
0.0
  0
LINE
  5
131
330
2
100
AcDbEntity
  8
PROFILE
100
AcDbLine
 10
399.9999999999997
 20
399.6862697354181
 30
0.0
 11
440.4999999999995
 21
399.6862697354181
 31
0.0
  0
LINE
  5
132
330
2
100
AcDbEntity
  8
PROFILE
100
AcDbLine
 10
371.9999999999997
 20
400.8939218910009
 30
0.0
 11
383.9999999999997
 21
400.8939218910009
 31
0.0
  0
LINE
  5
133
330
2
100
AcDbEntity
  8
PROFILE
100
AcDbLine
 10
371.9999999999997
 20
381.7944947871525
 30
0.0
 11
389.9999999999997
 21
381.7944947871526
 31
0.0
  0
LINE
  5
134
330
2
100
AcDbEntity
  8
PROFILE
100
AcDbLine
 10
371.9999999999997
 20
388.7695526911493
 30
0.0
 11
383.9999999999997
 21
388.7695526911493
 31
0.0
  0
LINE
  5
135
330
2
100
AcDbEntity
  8
PROFILE
100
AcDbLine
 10
368.6666666666665
 20
405.000000069449
 30
0.0
 11
365.9999999999998
 21
401.000000069449
 31
0.0
  0
LINE
  5
136
330
2
100
AcDbEntity
  8
PROFILE
100
AcDbLine
 10
365.9999999999998
 20
401.000000069449
 30
0.0
 11
357.9999999999998
 21
401.000000069449
 31
0.0
  0
LINE
  5
137
330
2
100
AcDbEntity
  8
PROFILE
100
AcDbLine
 10
357.9999999999998
 20
401.000000069449
 30
0.0
 11
351.9999999999999
 21
395.0000000694491
 31
0.0
  0
LINE
  5
138
330
2
100
AcDbEntity
  8
PROFILE
100
AcDbLine
 10
371.9999999999997
 20
400.8939218910009
 30
0.0
 11
371.9999999999997
 21
405.000000069449
 31
0.0
  0
LWPOLYLINE
  5
139
330
2
100
AcDbEntity
  8
PROFILE
100
AcDbPolyline
 90
        3
 70
   128
 43
0.0
 10
369.7914132202283
 20
396.7695526911494
 10
371.3971842921755
 20
399.7832642143524
 10
371.9999999999997
 20
400.8939218910009
  0
LINE
  5
13A
330
2
100
AcDbEntity
  8
PROFILE
100
AcDbLine
 10
371.9999999999997
 20
381.7944947871525
 30
0.0
 11
371.9999999999997
 21
388.7695526911493
 31
0.0
  0
LINE
  5
13B
330
2
100
AcDbEntity
  8
PROFILE
100
AcDbLine
 10
371.9999999999997
 20
388.7695526911493
 30
0.0
 11
369.7914132202283
 21
388.7695526911494
 31
0.0
  0
LWPOLYLINE
  5
13C
330
2
100
AcDbEntity
  8
PROFILE
100
AcDbPolyline
 90
       12
 70
   128
 43
0.0
 10
369.7914132202283
 20
388.7695526911494
 10
369.1973559180273
 20
388.8625962556231
 10
368.6925320783515
 20
389.1493911612352
 10
368.3039561746007
 20
389.6499938632952
 10
368.0651760885997
 20
390.3594117283047
 10
368.000901339734
 20
391.1285438353576
 10
368.0700537417479
 20
392.0171928321981
 10
368.2459147084982
 20
392.9008849912734
 10
368.5164521941346
 20
393.8322847865709
 10
368.8966217526543
 20
394.8577906443899
 10
369.3515912453594
 20
395.8892082088629
 10
369.7914132202283
 20
396.7695526911494
  0
LINE
  5
13D
330
2
100
AcDbEntity
  8
PROFILE
100
AcDbLine
 10
383.9999999999997
 20
404.5000000694491
 30
0.0
 11
383.4999999999997
 21
405.000000069449
 31
0.0
  0
LINE
  5
13E
330
2
100
AcDbEntity
  8
PROFILE
100
AcDbLine
 10
399.9999999999997
 20
405.000000069449
 30
0.0
 11
399.9999999999997
 21
399.6862697354181
 31
0.0
  0
LWPOLYLINE
  5
13F
330
2
100
AcDbEntity
  8
PROFILE
100
AcDbPolyline
 90
        5
 70
   128
 43
0.0
 10
399.9999999999997
 20
399.6862697354181
 10
397.0115703147634
 20
395.0045590547476
 10
394.1983444790295
 20
390.2069619204461
 10
391.9993625433209
 20
386.0563563939961
 10
389.9999999999997
 20
381.7944947871526
  0
LINE
  5
140
330
2
100
AcDbEntity
  8
PROFILE
100
AcDbLine
 10
389.9999999999998
 20
405.000000069449
 30
0.0
 11
389.9999999999997
 21
381.7944947871526
 31
0.0
  0
LINE
  5
142
330
2
100
AcDbEntity
  8
PROFILE
100
AcDbLine
 10
439.9999999999997
 20
405.000000069449
 30
0.0
 11
440.4999999999995
 21
404.5000000694491
 31
0.0
  0
CIRCLE
  5
2E6
330
2
100
AcDbEntity
  8
PROFILE
100
AcDbCircle
 10
448.9999999999997
 20
194.000000069441
 30
0.0
 40
6.349999999999994
  0
LINE
  5
2E7
330
2
100
AcDbEntity
  8
PROFILE
100
AcDbLine
 10
383.9999999999997
 20
225.0000000694412
 30
0.0
 11
383.9999999999997
 21
135.0000000694412
 31
0.0
  0
LINE
  5
2E8
330
2
100
AcDbEntity
  8
PROFILE
100
AcDbLine
 10
465.9999999999996
 20
135.5000000694412
 30
0.0
 11
465.9999999999997
 21
224.5000000694412
 31
0.0
  0
LINE
  5
2E9
330
2
100
AcDbEntity
  8
PROFILE
100
AcDbLine
 10
319.9999999999999
 20
141.0000000694412
 30
0.0
 11
319.9999999999999
 21
219.0000000694412
 31
0.0
  0
LINE
  5
2EA
330
2
100
AcDbEntity
  8
PROFILE
100
AcDbLine
 10
351.9999999999999
 20
145.0000000694412
 30
0.0
 11
351.9999999999999
 21
215.0000000694412
 31
0.0
  0
LINE
  5
2EB
330
2
100
AcDbEntity
  8
PROFILE
100
AcDbLine
 10
357.9999999999999
 20
139.0000000694412
 30
0.0
 11
357.9999999999999
 21
221.0000000694411
 31
0.0
  0
LINE
  5
2EC
330
2
100
AcDbEntity
  8
PROFILE
100
AcDbLine
 10
339.9999999999997
 20
224.5000000694412
 30
0.0
 11
339.9999999999997
 21
135.5000000694412
 31
0.0
  0
LINE
  5
2ED
330
2
100
AcDbEntity
  8
PROFILE
100
AcDbLine
 10
329.9999999999997
 20
135.0000000694412
 30
0.0
 11
329.9999999999998
 21
225.0000000694412
 31
0.0
  0
LINE
  5
2EE
330
2
100
AcDbEntity
  8
PROFILE
100
AcDbLine
 10
365.9999999999999
 20
139.0000000694412
 30
0.0
 11
365.9999999999999
 21
221.0000000694411
 31
0.0
  0
LINE
  5
2EF
330
2
100
AcDbEntity
  8
PROFILE
100
AcDbLine
 10
409.4999999998562
 20
224.9999999999892
 30
0.0
 11
409.4999999999997
 21
135.0000000694412
 31
0.0
  0
LWPOLYLINE
  5
2F0
330
2
100
AcDbEntity
  8
PROFILE
100
AcDbPolyline
 90
        9
 70
   128
 43
0.0
 10
371.9999999999997
 20
158.2055053517378
 10
370.7511824694443
 20
162.9364599601883
 10
369.7622706907198
 20
167.7277823950908
 10
369.0657108401473
 20
172.643225190679
 10
368.7095020613651
 20
177.5944010288348
 10
368.7667630188019
 20
183.6401554187094
 10
369.3499249434767
 20
189.6586884681454
 10
370.4568141437082
 20
195.7732944586671
 10
371.9999999999997
 20
201.7944947871446
  0
LINE
  5
2F1
330
2
100
AcDbEntity
  8
0
  6
CENTER
 62
     1
100
AcDbLine
 10
472.000000000005
 20
179.9999999999917
 30
0.0
 11
273.9999999999946
 21
179.9999999999917
 31
0.0
1001
ACAD
1000
ASC_BOUNDS
1002
{
1070
    19
1005
0
1005
0
1005
0
1005
0
1005
0
1005
0
1005
0
1005
0
1005
0
1005
0
1005
0
1005
0
1005
0
1005
0
1005
0
1005
0
1005
0
1005
0
1002
}
  0
LINE
  5
2F2
330
2
100
AcDbEntity
  8
PROFILE
100
AcDbLine
 10
351.9999999999999
 20
145.0000000694412
 30
0.0
 11
339.9999999999997
 21
145.0000000694411
 31
0.0
  0
ARC
  5
2F3
330
2
100
AcDbEntity
  8
PROFILE
100
AcDbCircle
 10
281.5
 20
189.5000000694413
 30
0.0
 40
1.500000000000056
100
AcDbArc
 50
90.00000000000325
 51
180.0
  0
ARC
  5
2F4
330
2
100
AcDbEntity
  8
PROFILE
100
AcDbCircle
 10
281.4999999999999
 20
170.5000000694413
 30
0.0
 40
1.5
100
AcDbArc
 50
180.0
 51
270.0
  0
LINE
  5
2F5
330
2
100
AcDbEntity
  8
PROFILE
100
AcDbLine
 10
329.9999999999999
 20
140.0000000694412
 30
0.0
 11
320.9999999999999
 21
140.0000000694412
 31
0.0
  0
LINE
  5
2F6
330
2
100
AcDbEntity
  8
PROFILE
100
AcDbLine
 10
320.9999999999999
 20
140.0000000694412
 30
0.0
 11
319.9999999999999
 21
141.0000000694412
 31
0.0
  0
LINE
  5
2F7
330
2
100
AcDbEntity
  8
PROFILE
100
AcDbLine
 10
329.9999999999997
 20
143.4076511423772
 30
0.0
 11
339.4999999999997
 21
143.4076511423772
 31
0.0
  0
LINE
  5
2F8
330
2
100
AcDbEntity
  8
PROFILE
100
AcDbLine
 10
329.9999999999998
 20
135.0000000694412
 30
0.0
 11
339.4999999999998
 21
135.0000000694412
 31
0.0
  0
LINE
  5
2F9
330
2
100
AcDbEntity
  8
PROFILE
100
AcDbLine
 10
339.9999999999997
 20
143.5857171573749
 30
0.0
 11
339.4999999999997
 21
143.4076511423772
 31
0.0
  0
LINE
  5
2FA
330
2
100
AcDbEntity
  8
PROFILE
100
AcDbLine
 10
339.9999999999998
 20
135.5000000694412
 30
0.0
 11
339.4999999999998
 21
135.0000000694412
 31
0.0
  0
LINE
  5
2FB
330
2
100
AcDbEntity
  8
PROFILE
100
AcDbLine
 10
318.4999999999999
 20
191.0000000694411
 30
0.0
 11
281.4999999999999
 21
191.0000000694413
 31
0.0
  0
LINE
  5
2FC
330
2
100
AcDbEntity
  8
PROFILE
100
AcDbLine
 10
281.4999999999998
 20
169.0000000694413
 30
0.0
 11
318.5
 21
169.0000000694411
 31
0.0
  0
LINE
  5
2FD
330
2
100
AcDbEntity
  8
PROFILE
100
AcDbLine
 10
279.9999999999999
 20
189.4999999305422
 30
0.0
 11
279.9999999999999
 21
170.5000000694413
 31
0.0
  0
LINE
  5
2FE
330
2
100
AcDbEntity
  8
PROFILE
100
AcDbLine
 10
285.9999999999999
 20
182.9999999999918
 30
0.0
 11
309.9999999999999
 21
182.9999999999918
 31
0.0
  0
LINE
  5
2FF
330
2
100
AcDbEntity
  8
PROFILE
100
AcDbLine
 10
285.9999999999999
 20
176.9999999999917
 30
0.0
 11
309.9999999999999
 21
176.9999999999917
 31
0.0
  0
ARC
  5
300
330
2
100
AcDbEntity
  8
PROFILE
100
AcDbCircle
 10
309.9999999999999
 20
179.9999999999917
 30
0.0
 40
3.0
100
AcDbArc
 50
270.0
 51
90.0
  0
ARC
  5
301
330
2
100
AcDbEntity
  8
PROFILE
100
AcDbCircle
 10
285.9999999999999
 20
179.9999999999917
 30
0.0
 40
3.0
100
AcDbArc
 50
90.0
 51
270.0
  0
ARC
  5
302
330
2
100
AcDbEntity
  8
PROFILE
100
AcDbCircle
 10
319.9381486660581
 20
190.9677770703539
 30
0.0
 40
1.53347086912087
100
AcDbArc
 50
87.68839301480252
 51
159.691742037159
  0
LINE
  5
303
330
2
100
AcDbEntity
  8
PROFILE
100
AcDbLine
 10
318.4999999999998
 20
191.4999999382474
 30
0.0
 11
318.4999999999999
 21
168.5000000694411
 31
0.0
  0
ARC
  5
304
330
2
100
AcDbEntity
  8
PROFILE
100
AcDbCircle
 10
319.938148666058
 20
169.0322230685282
 30
0.0
 40
1.533470869120788
100
AcDbArc
 50
200.3082579628407
 51
272.3116069852018
  0
LINE
  5
305
330
2
100
AcDbEntity
  8
PROFILE
100
AcDbLine
 10
371.9999999999997
 20
158.2055053517378
 30
0.0
 11
415.4999999999997
 21
158.2055053517378
 31
0.0
  0
LINE
  5
306
330
2
100
AcDbEntity
  8
PROFILE
100
AcDbLine
 10
371.9999999999997
 20
151.2304474477411
 30
0.0
 11
409.4999999999997
 21
151.2304474477411
 31
0.0
  0
LINE
  5
307
330
2
100
AcDbEntity
  8
PROFILE
100
AcDbLine
 10
371.9999999999998
 20
139.1060782478894
 30
0.0
 11
409.4999999999997
 21
139.1060782478894
 31
0.0
  0
LINE
  5
308
330
2
100
AcDbEntity
  8
PROFILE
100
AcDbLine
 10
465.4999999999996
 20
135.0000000694411
 30
0.0
 11
368.7095020604253
 21
135.0000000694412
 31
0.0
  0
LINE
  5
309
330
2
100
AcDbEntity
  8
PROFILE
100
AcDbLine
 10
368.6666666666665
 20
135.0000000694412
 30
0.0
 11
365.9999999999999
 21
139.0000000694412
 31
0.0
  0
LINE
  5
30A
330
2
100
AcDbEntity
  8
PROFILE
100
AcDbLine
 10
365.9999999999999
 20
139.0000000694412
 30
0.0
 11
357.9999999999999
 21
139.0000000694412
 31
0.0
  0
LINE
  5
30B
330
2
100
AcDbEntity
  8
PROFILE
100
AcDbLine
 10
357.9999999999999
 20
139.0000000694412
 30
0.0
 11
351.9999999999999
 21
145.0000000694412
 31
0.0
  0
LINE
  5
30C
330
2
100
AcDbEntity
  8
PROFILE
100
AcDbLine
 10
371.9999999999997
 20
158.2055053517378
 30
0.0
 11
371.9999999999997
 21
151.2304474477411
 31
0.0
  0
LINE
  5
30D
330
2
100
AcDbEntity
  8
PROFILE
100
AcDbLine
 10
371.9999999999998
 20
139.1060782478894
 30
0.0
 11
371.9999999999998
 21
135.0000000694412
 31
0.0
  0
LWPOLYLINE
  5
30E
330
2
100
AcDbEntity
  8
PROFILE
100
AcDbPolyline
 90
        3
 70
   128
 43
0.0
 10
369.7914132202284
 20
143.230447447741
 10
371.3971842921755
 20
140.216735924538
 10
371.9999999999998
 20
139.1060782478894
  0
LWPOLYLINE
  5
30F
330
2
100
AcDbEntity
  8
PROFILE
100
AcDbPolyline
 90
       12
 70
   128
 43
0.0
 10
369.7914132202283
 20
151.230447447741
 10
369.1973559180273
 20
151.1374038832674
 10
368.6925320783515
 20
150.8506089776552
 10
368.3039561746008
 20
150.3500062755952
 10
368.0651760885997
 20
149.6405884105856
 10
368.0009013397338
 20
148.8714563035328
 10
368.070053741748
 20
147.9828073066922
 10
368.2459147084983
 20
147.099115147617
 10
368.5164521941346
 20
146.1677153523194
 10
368.8966217526542
 20
145.1422094945005
 10
369.3515912453595
 20
144.1107919300275
 10
369.7914132202284
 20
143.230447447741
  0
LINE
  5
310
330
2
100
AcDbEntity
  8
PROFILE
100
AcDbLine
 10
371.9999999999997
 20
151.2304474477411
 30
0.0
 11
369.7914132202283
 21
151.230447447741
 31
0.0
  0
LINE
  5
311
330
2
100
AcDbEntity
  8
PROFILE
100
AcDbLine
 10
425.4999999999998
 20
140.3137304034724
 30
0.0
 11
465.9999999999997
 21
140.3137304034723
 31
0.0
  0
LINE
  5
312
330
2
100
AcDbEntity
  8
PROFILE
100
AcDbLine
 10
415.4999999999997
 20
158.2055053517379
 30
0.0
 11
415.4999999999998
 21
135.0000000694412
 31
0.0
  0
LINE
  5
313
330
2
100
AcDbEntity
  8
PROFILE
100
AcDbLine
 10
425.4999999999998
 20
140.3137304034724
 30
0.0
 11
425.4999999999998
 21
135.0000000694412
 31
0.0
  0
LWPOLYLINE
  5
314
330
2
100
AcDbEntity
  8
PROFILE
100
AcDbPolyline
 90
        5
 70
   128
 43
0.0
 10
415.4999999999997
 20
158.2055053517379
 10
416.3222986324895
 20
156.3799653893232
 10
417.1869285035312
 20
154.5728771860087
 10
421.1097066070399
 20
147.3283079044939
 10
425.4999999999998
 20
140.3137304034724
  0
LINE
  5
315
330
2
100
AcDbEntity
  8
PROFILE
100
AcDbLine
 10
465.4999999999996
 20
135.0000000694412
 30
0.0
 11
465.9999999999996
 21
135.5000000694412
 31
0.0
  0
LINE
  5
316
330
2
100
AcDbEntity
  8
PROFILE
100
AcDbLine
 10
351.9999999999999
 20
215.0000000694412
 30
0.0
 11
339.9999999999997
 21
215.0000000694412
 31
0.0
  0
LINE
  5
317
330
2
100
AcDbEntity
  8
PROFILE
100
AcDbLine
 10
339.9999999999998
 20
224.5000000694412
 30
0.0
 11
339.4999999999998
 21
225.0000000694412
 31
0.0
  0
LINE
  5
318
330
2
100
AcDbEntity
  8
PROFILE
100
AcDbLine
 10
339.9999999999997
 20
216.4142829815075
 30
0.0
 11
339.4999999999997
 21
216.5923489965052
 31
0.0
  0
LINE
  5
319
330
2
100
AcDbEntity
  8
PROFILE
100
AcDbLine
 10
329.9999999999998
 20
225.0000000694412
 30
0.0
 11
339.4999999999998
 21
225.0000000694412
 31
0.0
  0
LINE
  5
31A
330
2
100
AcDbEntity
  8
PROFILE
100
AcDbLine
 10
329.9999999999997
 20
216.5923489965052
 30
0.0
 11
339.4999999999997
 21
216.5923489965052
 31
0.0
  0
LINE
  5
31B
330
2
100
AcDbEntity
  8
PROFILE
100
AcDbLine
 10
320.9999999999999
 20
220.0000000694412
 30
0.0
 11
319.9999999999999
 21
219.0000000694412
 31
0.0
  0
LINE
  5
31C
330
2
100
AcDbEntity
  8
PROFILE
100
AcDbLine
 10
329.9999999999999
 20
220.0000000694412
 30
0.0
 11
320.9999999999999
 21
220.0000000694412
 31
0.0
  0
LINE
  5
31D
330
2
100
AcDbEntity
  8
PROFILE
100
AcDbLine
 10
371.9999999999998
 20
220.8939218909929
 30
0.0
 11
409.4999999999997
 21
220.8939218909929
 31
0.0
  0
LINE
  5
31E
330
2
100
AcDbEntity
  8
PROFILE
100
AcDbLine
 10
371.9999999999997
 20
208.7695526911413
 30
0.0
 11
409.4999999999997
 21
208.7695526911413
 31
0.0
  0
LINE
  5
31F
330
2
100
AcDbEntity
  8
PROFILE
100
AcDbLine
 10
371.9999999999997
 20
201.7944947871446
 30
0.0
 11
415.4999999999997
 21
201.7944947871447
 31
0.0
  0
LINE
  5
320
330
2
100
AcDbEntity
  8
PROFILE
100
AcDbLine
 10
465.4999999999996
 20
225.0000000694412
 30
0.0
 11
368.7095020604253
 21
225.0000000694412
 31
0.0
  0
LWPOLYLINE
  5
321
330
2
100
AcDbEntity
  8
PROFILE
100
AcDbPolyline
 90
        3
 70
   128
 43
0.0
 10
369.7914132202284
 20
216.7695526911414
 10
371.3971842921755
 20
219.7832642143445
 10
371.9999999999998
 20
220.8939218909929
  0
LINE
  5
322
330
2
100
AcDbEntity
  8
PROFILE
100
AcDbLine
 10
371.9999999999998
 20
220.8939218909929
 30
0.0
 11
371.9999999999998
 21
225.0000000694412
 31
0.0
  0
LINE
  5
323
330
2
100
AcDbEntity
  8
PROFILE
100
AcDbLine
 10
357.9999999999999
 20
221.0000000694412
 30
0.0
 11
351.9999999999999
 21
215.0000000694412
 31
0.0
  0
LINE
  5
324
330
2
100
AcDbEntity
  8
PROFILE
100
AcDbLine
 10
365.9999999999999
 20
221.0000000694412
 30
0.0
 11
357.9999999999999
 21
221.0000000694412
 31
0.0
  0
LINE
  5
325
330
2
100
AcDbEntity
  8
PROFILE
100
AcDbLine
 10
368.6666666666665
 20
225.0000000694412
 30
0.0
 11
365.9999999999999
 21
221.0000000694412
 31
0.0
  0
LINE
  5
326
330
2
100
AcDbEntity
  8
PROFILE
100
AcDbLine
 10
371.9999999999997
 20
208.7695526911413
 30
0.0
 11
369.7914132202283
 21
208.7695526911414
 31
0.0
  0
LINE
  5
327
330
2
100
AcDbEntity
  8
PROFILE
100
AcDbLine
 10
371.9999999999997
 20
201.7944947871446
 30
0.0
 11
371.9999999999997
 21
208.7695526911413
 31
0.0
  0
LWPOLYLINE
  5
328
330
2
100
AcDbEntity
  8
PROFILE
100
AcDbPolyline
 90
       12
 70
   128
 43
0.0
 10
369.7914132202283
 20
208.7695526911414
 10
369.1973559180273
 20
208.8625962556151
 10
368.6925320783515
 20
209.1493911612273
 10
368.3039561746008
 20
209.6499938632872
 10
368.0651760885997
 20
210.3594117282968
 10
368.0009013397338
 20
211.1285438353496
 10
368.070053741748
 20
212.0171928321902
 10
368.2459147084983
 20
212.9008849912654
 10
368.5164521941346
 20
213.832284786563
 10
368.8966217526542
 20
214.8577906443819
 10
369.3515912453595
 20
215.8892082088549
 10
369.7914132202284
 20
216.7695526911414
  0
LINE
  5
329
330
2
100
AcDbEntity
  8
PROFILE
100
AcDbLine
 10
425.4999999999998
 20
219.6862697354101
 30
0.0
 11
465.9999999999997
 21
219.6862697354101
 31
0.0
  0
LINE
  5
32A
330
2
100
AcDbEntity
  8
PROFILE
100
AcDbLine
 10
425.4999999999998
 20
225.0000000694412
 30
0.0
 11
425.4999999999998
 21
219.6862697354101
 31
0.0
  0
LINE
  5
32B
330
2
100
AcDbEntity
  8
PROFILE
100
AcDbLine
 10
415.4999999999998
 20
225.0000000694412
 30
0.0
 11
415.4999999999997
 21
201.7944947871446
 31
0.0
  0
LWPOLYLINE
  5
32C
330
2
100
AcDbEntity
  8
PROFILE
100
AcDbPolyline
 90
        5
 70
   128
 43
0.0
 10
425.4999999999998
 20
219.6862697354101
 10
422.5115703147634
 20
215.0045590547397
 10
419.6983444790295
 20
210.2069619204381
 10
417.4993625433209
 20
206.0563563939882
 10
415.4999999999997
 20
201.7944947871446
  0
LINE
  5
32D
330
2
100
AcDbEntity
  8
PROFILE
100
AcDbLine
 10
465.4999999999997
 20
225.0000000694412
 30
0.0
 11
465.9999999999997
 21
224.5000000694412
 31
0.0
  0
DIMENSION
  5
365
330
2
100
AcDbEntity
  8
PROFILE
 62
     6
100
AcDbDimension
  2
*D7
 10
224.9999999999964
 20
294.5
 30
0.0
 11
179.9999999999996
 21
296.7925295857988
 31
0.0
 70
    32
 71
     5
 42
89.99999999999364
  3
STANDARD
100
AcDbAlignedDimension
 13
135.0000000000028
 23
320.3137303340404
 33
0.0
 14
224.9999999999964
 24
320.3137303340402
 34
0.0
100
AcDbRotatedDimension
1001
ACAD
1000
DSTYLE
1002
{
1070
   343
1005
23
1002
}
  0
DIMENSION
  5
372
330
2
100
AcDbEntity
  8
PROFILE
 62
     6
100
AcDbDimension
  2
*D8
 10
319.9999999999998
 20
294.5
 30
0.0
 11
299.9999999999999
 21
296.7777366863905
 31
0.0
 70
    32
 71
     5
 42
39.99999999999983
  3
STANDARD
100
AcDbAlignedDimension
 13
279.9999999999999
 23
350.5000000694492
 33
0.0
 14
319.9999999999998
 24
321.0000000694493
 34
0.0
100
AcDbRotatedDimension
1001
ACAD
1000
DSTYLE
1002
{
1070
   343
1005
23
1002
}
  0
DIMENSION
  5
37F
330
2
100
AcDbEntity
  8
PROFILE
 62
     6
100
AcDbDimension
  2
*D9
 10
329.9999999999996
 20
294.5
 30
0.0
 11
324.9999999999996
 21
296.7777366863905
 31
0.0
 70
    32
 71
     5
 42
9.999999999999829
  3
STANDARD
100
AcDbAlignedDimension
 13
319.9999999999998
 23
321.0000000694493
 33
0.0
 14
329.9999999999996
 24
315.0000000694491
 34
0.0
100
AcDbRotatedDimension
1001
ACAD
1000
DSTYLE
1002
{
1070
   343
1005
23
1002
}
  0
DIMENSION
  5
38C
330
2
100
AcDbEntity
  8
PROFILE
 62
     6
100
AcDbDimension
  2
*D10
 10
339.4999999999997
 20
303.0
 30
0.0
 11
334.7499999999997
 21
305.3128698224852
 31
0.0
 70
    32
 71
     5
 42
9.500000000000113
  3
STANDARD
100
AcDbAlignedDimension
 13
329.9999999999996
 23
315.0000000694491
 33
0.0
 14
339.4999999999997
 24
315.0000000694491
 34
0.0
100
AcDbRotatedDimension
1001
ACAD
1000
DSTYLE
1002
{
1070
   343
1005
23
1002
}
  0
DIMENSION
  5
399
330
2
100
AcDbEntity
  8
PROFILE
 62
     6
100
AcDbDimension
  2
*D11
 10
440.4999999999995
 20
294.5
 30
0.0
 11
385.2499999999996
 21
296.7999260355029
 31
0.0
 70
    32
 71
     5
 42
110.5
  3
STANDARD
100
AcDbAlignedDimension
 13
329.9999999999996
 23
315.0000000694491
 33
0.0
 14
440.4999999999995
 24
315.5000000694491
 34
0.0
100
AcDbRotatedDimension
1001
ACAD
1000
DSTYLE
1002
{
1070
   343
1005
23
1002
}
  0
DIMENSION
  5
3AF
330
2
100
AcDbEntity
  8
PROFILE
 62
     6
100
AcDbDimension
  2
*D12
 10
318.5
 20
303.0
 30
0.0
 11
299.25
 21
305.299926035503
 31
0.0
 70
    32
 71
     5
 42
38.50000000000006
  3
STANDARD
100
AcDbAlignedDimension
 13
279.9999999999999
 23
350.5000000694492
 33
0.0
 14
318.5
 24
348.5000000694485
 34
0.0
100
AcDbRotatedDimension
1001
ACAD
1000
DSTYLE
1002
{
1070
   343
1005
23
1002
}
  0
DIMENSION
  5
3BC
330
2
100
AcDbEntity
  8
PROFILE
 62
     6
100
AcDbDimension
  2
*D13
 10
279.9999999999999
 20
334.0
 30
0.0
 11
275.2843934911242
 21
336.2758875739645
 31
0.0
 70
    32
 71
     5
 42
2.999999999999829
  3
STANDARD
100
AcDbAlignedDimension
 13
282.9999999999998
 23
359.9999999999998
 33
0.0
 14
279.9999999999999
 24
350.5000000694492
 34
0.0
100
AcDbRotatedDimension
1001
ACAD
1000
DSTYLE
1002
{
1070
   343
1005
23
1002
}
  0
DIMENSION
  5
3CB
330
2
100
AcDbEntity
  8
PROFILE
 62
     6
100
AcDbDimension
  2
*D14
 10
312.9999999999998
 20
334.0
 30
0.0
 11
297.9999999999998
 21
336.2777366863905
 31
0.0
 70
    32
 71
     5
 42
30.0
  3
STANDARD
100
AcDbAlignedDimension
 13
282.9999999999998
 23
359.9999999999998
 33
0.0
 14
312.9999999999998
 24
359.9999999999998
 34
0.0
100
AcDbRotatedDimension
1001
ACAD
1000
DSTYLE
1002
{
1070
   343
1005
23
1002
}
  0
DIMENSION
  5
3D8
330
2
100
AcDbEntity
  8
PROFILE
 62
     6
100
AcDbDimension
  2
*D15
 10
193.500000000002
 20
302.0
 30
0.0
 11
181.250000000002
 21
304.2999260355029
 31
0.0
 70
    32
 71
     5
 42
24.5
  3
STANDARD
100
AcDbAlignedDimension
 13
169.000000000002
 23
360.000000000008
 33
0.0
 14
193.500000000002
 24
357.000000000008
 34
0.0
100
AcDbRotatedDimension
1001
ACAD
1000
DSTYLE
1002
{
1070
   343
1005
23
1002
}
  0
DIMENSION
  5
3E5
330
2
100
AcDbEntity
  8
PROFILE
 62
     6
100
AcDbDimension
  2
*D16
 10
239.0
 20
357.000000000008
 30
0.0
 11
236.7130177514793
 21
360.0000000000081
 31
0.0
 70
    32
 71
     5
 42
6.0
  3
STANDARD
100
AcDbAlignedDimension
 13
193.500000000002
 23
363.000000000008
 33
0.0
 14
193.500000000002
 24
357.000000000008
 34
0.0
 50
90.0
100
AcDbRotatedDimension
1001
ACAD
1000
DSTYLE
1002
{
1070
   343
1005
23
1002
}
  0
DIMENSION
  5
3F2
330
2
100
AcDbEntity
  8
PROFILE
 62
     6
100
AcDbDimension
  2
*D26
 10
244.5000000000001
 20
177.0
 30
0.0
 11
242.2130177514794
 21
180.0
 31
0.0
 70
    32
 71
     5
 42
6.0
  3
STANDARD
100
AcDbAlignedDimension
 13
193.5000000000021
 23
183.0
 33
0.0
 14
193.5000000000021
 24
177.0
 34
0.0
 50
90.0
100
AcDbRotatedDimension
1001
ACAD
1000
DSTYLE
1002
{
1070
   343
1005
23
1002
}
  0
DIMENSION
  5
3F3
330
2
100
AcDbEntity
  8
PROFILE
 62
     6
100
AcDbDimension
  2
*D25
 10
193.5000000000021
 20
121.999999999992
 30
0.0
 11
181.2500000000021
 21
124.2999260354949
 31
0.0
 70
    32
 71
     5
 42
24.5
  3
STANDARD
100
AcDbAlignedDimension
 13
169.0000000000021
 23
180.0
 33
0.0
 14
193.5000000000021
 24
177.0
 34
0.0
100
AcDbRotatedDimension
1001
ACAD
1000
DSTYLE
1002
{
1070
   343
1005
23
1002
}
  0
DIMENSION
  5
3F4
330
2
100
AcDbEntity
  8
PROFILE
 62
     6
100
AcDbDimension
  2
*D17
 10
224.9999999999965
 20
114.499999999992
 30
0.0
 11
179.9999999999997
 21
116.7925295857908
 31
0.0
 70
    32
 71
     5
 42
89.99999999999364
  3
STANDARD
100
AcDbAlignedDimension
 13
135.0000000000029
 23
140.3137303340324
 33
0.0
 14
224.9999999999965
 24
140.3137303340321
 34
0.0
100
AcDbRotatedDimension
1001
ACAD
1000
DSTYLE
1002
{
1070
   343
1005
23
1002
}
  0
DIMENSION
  5
3F5
330
2
100
AcDbEntity
  8
PROFILE
 62
     6
100
AcDbDimension
  2
*D24
 10
312.9999999999999
 20
153.999999999992
 30
0.0
 11
297.9999999999999
 21
156.2777366863825
 31
0.0
 70
    32
 71
     5
 42
30.0
  3
STANDARD
100
AcDbAlignedDimension
 13
282.9999999999999
 23
179.9999999999917
 33
0.0
 14
312.9999999999999
 24
179.9999999999917
 34
0.0
100
AcDbRotatedDimension
1001
ACAD
1000
DSTYLE
1002
{
1070
   343
1005
23
1002
}
  0
DIMENSION
  5
3F6
330
2
100
AcDbEntity
  8
PROFILE
 62
     6
100
AcDbDimension
  2
*D23
 10
280.0000000000001
 20
153.999999999992
 30
0.0
 11
275.2843934911243
 21
156.2758875739565
 31
0.0
 70
    32
 71
     5
 42
2.999999999999829
  3
STANDARD
100
AcDbAlignedDimension
 13
282.9999999999999
 23
179.9999999999917
 33
0.0
 14
280.0000000000001
 24
170.5000000694412
 34
0.0
100
AcDbRotatedDimension
1001
ACAD
1000
DSTYLE
1002
{
1070
   343
1005
23
1002
}
  0
DIMENSION
  5
3F7
330
2
100
AcDbEntity
  8
PROFILE
 62
     6
100
AcDbDimension
  2
*D22
 10
318.5000000000001
 20
122.999999999992
 30
0.0
 11
299.2500000000001
 21
125.2999260354949
 31
0.0
 70
    32
 71
     5
 42
38.50000000000006
  3
STANDARD
100
AcDbAlignedDimension
 13
280.0000000000001
 23
170.5000000694412
 33
0.0
 14
318.5000000000001
 24
168.5000000694405
 34
0.0
100
AcDbRotatedDimension
1001
ACAD
1000
DSTYLE
1002
{
1070
   343
1005
23
1002
}
  0
DIMENSION
  5
3F8
330
2
100
AcDbEntity
  8
PROFILE
 62
     6
100
AcDbDimension
  2
*D18
 10
319.9999999999999
 20
114.499999999992
 30
0.0
 11
300.0
 21
116.7777366863825
 31
0.0
 70
    32
 71
     5
 42
39.99999999999983
  3
STANDARD
100
AcDbAlignedDimension
 13
280.0000000000001
 23
170.5000000694412
 33
0.0
 14
319.9999999999999
 24
141.0000000694413
 34
0.0
100
AcDbRotatedDimension
1001
ACAD
1000
DSTYLE
1002
{
1070
   343
1005
23
1002
}
  0
DIMENSION
  5
3F9
330
2
100
AcDbEntity
  8
PROFILE
 62
     6
100
AcDbDimension
  2
*D21
 10
465.9999999999996
 20
114.499999999992
 30
0.0
 11
397.9999999999997
 21
116.7869822485127
 31
0.0
 70
    32
 71
     5
 42
135.9999999999999
  3
STANDARD
100
AcDbAlignedDimension
 13
329.9999999999997
 23
135.0000000694411
 33
0.0
 14
465.9999999999996
 24
135.5000000694412
 34
0.0
100
AcDbRotatedDimension
1001
ACAD
1000
DSTYLE
1002
{
1070
   343
1005
23
1002
}
  0
DIMENSION
  5
3FA
330
2
100
AcDbEntity
  8
PROFILE
 62
     6
100
AcDbDimension
  2
*D20
 10
339.4999999999998
 20
122.999999999992
 30
0.0
 11
334.7499999999998
 21
125.3128698224772
 31
0.0
 70
    32
 71
     5
 42
9.500000000000113
  3
STANDARD
100
AcDbAlignedDimension
 13
329.9999999999997
 23
135.0000000694411
 33
0.0
 14
339.4999999999998
 24
135.0000000694411
 34
0.0
100
AcDbRotatedDimension
1001
ACAD
1000
DSTYLE
1002
{
1070
   343
1005
23
1002
}
  0
DIMENSION
  5
3FB
330
2
100
AcDbEntity
  8
PROFILE
 62
     6
100
AcDbDimension
  2
*D19
 10
329.9999999999997
 20
114.499999999992
 30
0.0
 11
324.9999999999998
 21
116.7777366863825
 31
0.0
 70
    32
 71
     5
 42
9.999999999999829
  3
STANDARD
100
AcDbAlignedDimension
 13
319.9999999999999
 23
141.0000000694413
 33
0.0
 14
329.9999999999997
 24
135.0000000694411
 34
0.0
100
AcDbRotatedDimension
1001
ACAD
1000
DSTYLE
1002
{
1070
   343
1005
23
1002
}
  0
DIMENSION
  5
4E0
330
2
100
AcDbEntity
  8
PROFILE
 62
     6
100
AcDbDimension
  2
*D27
 10
269.5
 20
371.0000000694492
 30
0.0
 11
266.994822485207
 21
360.0000000694493
 31
0.0
 70
    32
 71
     5
 42
22.0
  3
R
100
AcDbAlignedDimension
 13
281.4999999999998
 23
349.0000000694493
 33
0.0
 14
281.4999999999999
 24
371.0000000694492
 34
0.0
 50
90.0
100
AcDbRotatedDimension
  0
DIMENSION
  5
4ED
330
2
100
AcDbEntity
  8
PROFILE
 62
     6
100
AcDbDimension
  2
*D28
 10
264.0
 20
400.0000000694491
 30
0.0
 11
261.494822485207
 21
360.0000000694492
 31
0.0
 70
    32
 71
     5
 42
80.0
  3
R
100
AcDbAlignedDimension
 13
320.9999999999999
 23
320.0000000694491
 33
0.0
 14
320.9999999999999
 24
400.0000000694491
 34
0.0
 50
90.0
100
AcDbRotatedDimension
  0
DIMENSION
  5
522
330
2
100
AcDbEntity
  8
PROFILE
 62
     6
100
AcDbDimension
  2
*D29
 10
141.8101141764253
 20
327.7272154783347
 30
0.0
 11
228.5172055022017
 21
401.0
 31
0.0
 70
   163
 71
     5
 42
99.99999999999989
  3
ARR
100
AcDbDiametricDimension
 15
218.1898858235748
 25
392.2727845216804
 35
0.0
 40
0.0
1001
ACAD
1000
DSTYLE
1002
{
1070
   279
1070
     1
1002
}
  0
DIMENSION
  5
53F
330
2
100
AcDbEntity
  8
PROFILE
 62
     6
100
AcDbDimension
  2
*D30
 10
218.6053390593277
 20
415.5
 30
0.0
 11
226.0779721954224
 21
418.0051775147928
 31
0.0
 70
    32
 71
     5
 42
6.5
  3
R
100
AcDbAlignedDimension
 13
212.1053390593277
 23
395.3553390593348
 33
0.0
 14
218.6053390593277
 24
395.3553390593348
 34
0.0
100
AcDbRotatedDimension
  0
DIMENSION
  5
54E
330
2
100
AcDbEntity
  8
PROFILE
 62
     6
100
AcDbDimension
  2
*D31
 10
269.5000000000001
 20
191.0000000694412
 30
0.0
 11
266.9948224852072
 21
180.0000000694412
 31
0.0
 70
    32
 71
     5
 42
22.0
  3
R
100
AcDbAlignedDimension
 13
281.4999999999999
 23
169.0000000694412
 33
0.0
 14
281.5000000000001
 24
191.0000000694412
 34
0.0
 50
90.0
100
AcDbRotatedDimension
  0
DIMENSION
  5
54F
330
2
100
AcDbEntity
  8
PROFILE
 62
     6
100
AcDbDimension
  2
*D32
 10
264.0000000000001
 20
220.0000000694411
 30
0.0
 11
261.4948224852072
 21
180.0000000694411
 31
0.0
 70
    32
 71
     5
 42
80.0
  3
R
100
AcDbAlignedDimension
 13
321.0000000000001
 23
140.0000000694411
 33
0.0
 14
321.0000000000001
 24
220.0000000694411
 34
0.0
 50
90.0
100
AcDbRotatedDimension
  0
DIMENSION
  5
550
330
2
100
AcDbEntity
  8
PROFILE
 62
     6
100
AcDbDimension
  2
*D33
 10
141.8101141764254
 20
147.7272154783267
 30
0.0
 11
228.5172055022019
 21
220.999999999992
 31
0.0
 70
   163
 71
     5
 42
99.99999999999994
  3
ARR
100
AcDbDiametricDimension
 15
218.1898858235749
 25
212.2727845216723
 35
0.0
 40
0.0
1001
ACAD
1000
DSTYLE
1002
{
1070
   279
1070
     1
1002
}
  0
DIMENSION
  5
551
330
2
100
AcDbEntity
  8
PROFILE
 62
     6
100
AcDbDimension
  2
*D34
 10
218.6053390593278
 20
235.499999999992
 30
0.0
 11
226.0779721954225
 21
238.0051775147849
 31
0.0
 70
    32
 71
     5
 42
6.5
  3
R
100
AcDbAlignedDimension
 13
212.1053390593278
 23
215.3553390593268
 33
0.0
 14
218.6053390593278
 24
215.3553390593268
 34
0.0
100
AcDbRotatedDimension
  0
VIEWPORT
  5
521
330
C
100
AcDbEntity
 67
     1
  8
0
 62
     6
100
AcDbViewport
 10
183.5140478325275
 20
99.00577500559551
 30
0.0
 40
379.9517357235863
 41
209.9733276367187
 68
     1
 69
     1
 12
183.5140478325275
 22
99.00577500559551
 13
0.0
 23
0.0
 14
0.5
 24
0.5
 15
10.0
 25
10.0
 16
0.0
 26
0.0
 36
1.0
 17
0.0
 27
0.0
 37
0.0
 42
50.0
 43
0.0
 44
0.0
 45
209.9733276367187
 50
0.0
 51
0.0
 72
   100
 90
    41248
  1

281
     0
 71
     1
 74
     0
110
0.0
120
0.0
130
0.0
111
1.0
121
0.0
131
0.0
112
0.0
122
1.0
132
0.0
 79
     0
146
0.0
170
     0
  0
ENDSEC
  0
SECTION
  2
OBJECTS
  0
DICTIONARY
  5
7
330
0
100
AcDbDictionary
281
     1
  3
ACAD_COLOR
350
3D
  3
ACAD_GROUP
350
39
  3
ACAD_LAYOUT
350
B
  3
ACAD_MATERIAL
350
3C
  3
ACAD_MLINESTYLE
350
3A
  3
ACAD_PLOTSETTINGS
350
3B
  3
ACAD_PLOTSTYLENAME
350
6
  0
DICTIONARY
  5
3D
102
{ACAD_REACTORS
330
7
102
}
330
7
100
AcDbDictionary
281
     1
  0
DICTIONARY
  5
39
102
{ACAD_REACTORS
330
7
102
}
330
7
100
AcDbDictionary
281
     1
  0
DICTIONARY
  5
B
102
{ACAD_REACTORS
330
7
102
}
330
7
100
AcDbDictionary
281
     1
  3
Model
350
A
  3
配置1
350
F
  0
DICTIONARY
  5
3C
102
{ACAD_REACTORS
330
7
102
}
330
7
100
AcDbDictionary
281
     1
  0
DICTIONARY
  5
3A
102
{ACAD_REACTORS
330
7
102
}
330
7
100
AcDbDictionary
281
     1
  3
STANDARD
350
3F
  0
DICTIONARY
  5
3B
102
{ACAD_REACTORS
330
7
102
}
330
7
100
AcDbDictionary
281
     1
  0
ACDBDICTIONARYWDFLT
  5
6
102
{ACAD_REACTORS
330
7
102
}
330
7
100
AcDbDictionary
281
     1
  3
Normal
350
5
100
AcDbDictionaryWithDefault
340
5
  0
LAYOUT
  5
A
102
{ACAD_REACTORS
330
B
102
}
330
B
100
AcDbPlotSettings
  1

  2
EPSON EPL-5700L Advanced
  4

  6

 40
0.0
 41
0.0
 42
0.0
 43
0.0
 44
0.0
 45
0.0
 46
0.0
 47
0.0
 48
0.0
 49
0.0
140
0.0
141
0.0
142
1.0
143
1.0
 70
  1712
 72
     0
 73
     0
 74
     0
  7

 75
     0
147
1.0
 76
     0
 77
     2
 78
   300
148
0.0
149
0.0
100
AcDbLayout
  1
Model
 70
     1
 71
     0
 10
0.0
 20
0.0
 11
12.0
 21
9.0
 12
0.0
 22
0.0
 32
0.0
 14
0.0
 24
0.0
 34
0.0
 15
0.0
 25
0.0
 35
0.0
146
0.0
 13
0.0
 23
0.0
 33
0.0
 16
1.0
 26
0.0
 36
0.0
 17
0.0
 27
1.0
 37
0.0
 76
     0
330
2
  0
LAYOUT
  5
F
102
{ACAD_REACTORS
330
B
102
}
330
B
100
AcDbPlotSettings
  1

  2
RICOH Aficio 2027 RPCS
  4
A4
  6

 40
5.027083396911621
 41
5.027085304260253
 42
5.027084350585936
 43
5.027069091796875
 44
209.9733276367186
 45
296.9259948730469
 46
0.95
 47
1.429999999999999
 48
0.0
 49
0.0
140
0.0
141
0.0
142
1.0
143
1.0
 70
   692
 72
     1
 73
     1
 74
     1
  7
monochrome.ctb
 75
    16
147
1.0
 76
     1
 77
     2
 78
   300
148
0.0047509374687706
149
0.0038054158522414
100
AcDbLayout
  1
配置1
 70
     1
 71
     1
 10
-6.461820029265644
 20
-5.980888812763862
 11
290.4641748437812
 21
203.9924388239549
 12
2095.847254408377
 22
50.0
 32
1850.862055147869
 14
1.000000000000000E+20
 24
1.000000000000000E+20
 34
1.000000000000000E+20
 15
-1.000000000000000E+20
 25
-1.000000000000000E+20
 35
-1.000000000000000E+20
146
0.0
 13
0.0
 23
0.0
 33
0.0
 16
1.0
 26
0.0
 36
0.0
 17
0.0
 27
1.0
 37
0.0
 76
     0
330
C
331
521
  0
MLINESTYLE
  5
3F
102
{ACAD_REACTORS
330
3A
102
}
330
3A
100
AcDbMlineStyle
  2
STANDARD
 70
     0
  3

 62
   256
 51
90.0
 52
90.0
 71
     2
 49
0.5
 62
   256
  6
BYLAYER
 49
-0.5
 62
   256
  6
BYLAYER
  0
ACDBPLACEHOLDER
  5
5
102
{ACAD_REACTORS
330
6
102
}
330
6
  0
ENDSEC
  0
EOF
